<?xml version="1.0" standalone="no"?>
<!DOCTYPE svg PUBLIC "-//W3C//DTD SVG 1.1//EN" "http://www.w3.org/Graphics/SVG/1.1/DTD/svg11.dtd" >
<svg xmlns="http://www.w3.org/2000/svg" xmlns:xlink="http://www.w3.org/1999/xlink" version="1.1">
<metadata>
Created by FontForge 20170731 at Wed Mar  9 15:36:52 2022
 By Aleksey,,,
Copyright (C) 2001, 2008 Hoefler &#38; Frere-Jones. http://www.typography.com
</metadata>
<defs>
<font id="GothamNarrow-Bold" horiz-adv-x="722" >
  <font-face 
    font-family="Gotham Narrow Bold"
    font-weight="400"
    font-stretch="condensed"
    units-per-em="2048"
    panose-1="0 0 0 0 0 0 0 0 0 0"
    ascent="1638"
    descent="-410"
    x-height="1098"
    cap-height="1434"
    bbox="-416 -561 2210 2036"
    underline-thickness="102"
    underline-position="-307"
    unicode-range="U+0020-FB04"
  />
<missing-glyph horiz-adv-x="1024" 
d="M0 -410v2048h1024v-2048h-1024zM145 1536l367 -799l367 799h-734zM102 -156l353 770l-353 770v-1540zM922 1384l-353 -770l353 -770v1540zM512 492l-367 -799h734z" />
    <glyph glyph-name="f_f" unicode="ff" horiz-adv-x="1374" 
d="M162 0v852h-111v238h111v73q0 164 82 246t239 82q97 0 181 -25v-239q-63 18 -107 18q-106 0 -106 -112v-43h211v-238h-209v-852h-291zM850 0v852h-109v238h109v73q0 167 82 246q79 82 239 82q97 0 181 -25v-239q-63 18 -107 18q-108 0 -108 -112v-43h213v-238h-209v-852
h-291z" />
    <glyph glyph-name="fi" unicode="fi" horiz-adv-x="1234" 
d="M162 0v852h-111v238h111v73q0 164 82 246t239 82q97 0 181 -25v-239q-63 18 -107 18q-106 0 -106 -112v-43h213v-238h-211v-852h-291zM817 0v1098h291v-1098h-291zM811 1214v265h303v-265h-303z" />
    <glyph glyph-name="fl" unicode="fl" horiz-adv-x="1234" 
d="M162 0v852h-111v238h111v73q0 164 82 246t239 82q97 0 181 -25v-239q-63 18 -107 18q-106 0 -106 -112v-43h213v-238h-211v-852h-291zM817 0v1479h291v-1479h-291z" />
    <glyph glyph-name="f_f_i" unicode="ffi" horiz-adv-x="1921" 
d="M162 0v852h-111v238h111v73q0 164 82 246t239 82q97 0 181 -25v-239q-63 18 -107 18q-106 0 -106 -112v-43h211v-238h-209v-852h-291zM850 0v852h-109v238h109v73q0 167 82 246q79 82 239 82q97 0 181 -25v-239q-63 18 -107 18q-108 0 -108 -112v-43h213v-238h-209v-852
h-291zM1503 0v1098h289v-1098h-289zM1497 1214v265h301v-265h-301z" />
    <glyph glyph-name="f_f_l" unicode="ffl" horiz-adv-x="1921" 
d="M162 0v852h-111v238h111v73q0 164 82 246t239 82q97 0 181 -25v-239q-63 18 -107 18q-106 0 -106 -112v-43h211v-238h-209v-852h-291zM850 0v852h-109v238h109v73q0 167 82 246q79 82 239 82q97 0 181 -25v-239q-63 18 -107 18q-108 0 -108 -112v-43h213v-238h-209v-852
h-291zM1503 0v1479h289v-1479h-289z" />
    <glyph glyph-name=".notdef" horiz-adv-x="1024" 
d="M0 -410v2048h1024v-2048h-1024zM145 1536l367 -799l367 799h-734zM102 -156l353 770l-353 770v-1540zM922 1384l-353 -770l353 -770v1540zM512 492l-367 -799h734z" />
    <glyph glyph-name=".null" horiz-adv-x="0" 
 />
    <glyph glyph-name="nonmarkingreturn" horiz-adv-x="682" 
 />
    <glyph glyph-name="space" unicode=" " horiz-adv-x="458" 
 />
    <glyph glyph-name="exclam" unicode="!" horiz-adv-x="602" 
d="M221 475l-92 918v41h344v-41l-94 -918h-158zM141 0v315h318v-315h-318z" />
    <glyph glyph-name="quotedbl" unicode="&#x22;" horiz-adv-x="958" 
d="M551 780l24 654h316v-13l-203 -641h-137zM109 780l26 654h316v-13l-203 -641h-139z" />
    <glyph glyph-name="numbersign" unicode="#" horiz-adv-x="1239" 
d="M1118 563v-250h-198l-46 -313h-237l47 313h-248l-47 -313h-237l45 313h-140v250h176l48 316h-162v249h198l45 306h238l-45 -306h248l43 306h237l-45 -306h142v-249h-179l-45 -316h162zM514 885l-49 -328h258l49 328h-258z" />
    <glyph glyph-name="dollar" unicode="$" horiz-adv-x="1144" 
d="M1036 1276l-149 -219q-122 90 -209 114v-329q204 -84 293.5 -186t89.5 -255v-4q0 -158 -103 -263t-274 -132v-209h-199v209q-252 30 -426 195l160 217q140 -123 273 -156v344q-203 85 -289 182.5t-86 253.5v2q0 158 100 262.5t268 129.5v131h199v-129q200 -28 352 -158z
M776 387q0 41 -22 73.5t-76 63.5v-268q98 30 98 129v2zM401 1057q0 -42 19.5 -71.5t71.5 -59.5v250q-91 -30 -91 -117v-2z" />
    <glyph glyph-name="percent" unicode="%" horiz-adv-x="1585" 
d="M391 707q-138 0 -224.5 101.5t-86.5 258.5v16q0 159 88 263t227 104q138 0 225 -103t87 -260v-16q0 -157 -88 -260.5t-228 -103.5zM391 1268q-53 0 -81.5 -50t-28.5 -135v-10q0 -85 31 -135.5t83 -50.5q53 0 82 49.5t29 134.5v10q0 85 -31.5 136t-83.5 51zM727 762
l426 672h215l-508 -762l-428 -672h-213zM1190 -16q-138 0 -224.5 102.5t-86.5 259.5v16q0 158 87.5 261.5t227.5 103.5q138 0 224.5 -101.5t86.5 -258.5v-17q0 -159 -87 -262.5t-228 -103.5zM1194 166q53 0 82 49.5t29 134.5v10q0 85 -31.5 136t-83.5 51t-81.5 -50.5
t-29.5 -134.5v-10q0 -85 31.5 -135.5t83.5 -50.5z" />
    <glyph glyph-name="ampersand" unicode="&#x26;" horiz-adv-x="1265" 
d="M1010 -29l-138 156q-167 -147 -374 -147q-190 0 -315.5 111.5t-125.5 293.5v6q0 258 260 402q-106 160 -106 299v6q0 149 107.5 254.5t285.5 105.5q166 0 268.5 -98.5t102.5 -247.5v-8q0 -131 -71 -222t-202 -155l172 -207q54 97 107 225l221 -96q-67 -178 -160 -321
l183 -209zM557 893q83 39 122.5 87t39.5 112v4q0 58 -33 93.5t-86 35.5q-55 0 -89 -38t-34 -97v-5q0 -46 18.5 -89.5t61.5 -102.5zM532 225q94 0 185 78l-246 301q-119 -75 -119 -201v-4q0 -78 50 -126t130 -48z" />
    <glyph glyph-name="quotesingle" unicode="'" horiz-adv-x="522" 
d="M109 780l26 654h320v-13l-205 -641h-141z" />
    <glyph glyph-name="parenleft" unicode="(" horiz-adv-x="823" 
d="M641 -285q-530 259 -530 873q0 615 530 874l115 -190q-189 -120 -274 -287t-85 -397q0 -228 85 -395t274 -287z" />
    <glyph glyph-name="parenright" unicode=")" horiz-adv-x="823" 
d="M182 -285l-114 191q189 120 273.5 286.5t84.5 395.5q0 230 -84.5 397t-273.5 287l114 190q531 -261 531 -874q0 -612 -531 -873z" />
    <glyph glyph-name="asterisk" unicode="*" horiz-adv-x="800" 
d="M317 776l33 240l-184 -146l-84 146l217 90l-217 90l84 147l184 -147l-33 242h166l-32 -242l184 147l84 -147l-217 -90l217 -90l-84 -146l-184 146l32 -240h-166z" />
    <glyph glyph-name="plus" unicode="+" horiz-adv-x="1153" 
d="M440 254v334h-329v266h329v334h273v-334h329v-266h-329v-334h-273z" />
    <glyph glyph-name="comma" unicode="," horiz-adv-x="544" 
d="M74 -332l-25 121q104 15 151.5 70.5t39.5 140.5h-127v315h317v-264q0 -368 -356 -383z" />
    <glyph glyph-name="hyphen" unicode="-" horiz-adv-x="792" 
d="M96 494v282h600v-282h-600z" />
    <glyph glyph-name="period" unicode="." horiz-adv-x="544" 
d="M113 0v315h317v-315h-317z" />
    <glyph glyph-name="slash" unicode="/" horiz-adv-x="950" 
d="M-45 -244l770 1860h246l-770 -1860h-246z" />
    <glyph glyph-name="zero" unicode="0" horiz-adv-x="1302" 
d="M649 -25q-254 0 -405.5 198.5t-151.5 528.5v27q0 329 153.5 529t407.5 200q252 0 404.5 -199t152.5 -528v-26q0 -329 -153.5 -529.5t-407.5 -200.5zM653 246q117 0 185.5 120t68.5 341v18q0 221 -70.5 342t-187.5 121t-185.5 -119.5t-68.5 -341.5v-18q0 -221 70 -342
t188 -121z" />
    <glyph glyph-name="one" unicode="1" horiz-adv-x="761" 
d="M309 0v1139l-219 -60l-47 258l354 107h205v-1444h-293z" />
    <glyph glyph-name="two" unicode="2" horiz-adv-x="1116" 
d="M90 0v240l422 434q118 121 162.5 191.5t44.5 146.5q0 80 -48 125t-124 45q-72 0 -130.5 -40t-131.5 -130l-193 182q96 131 210.5 195.5t266.5 64.5q201 0 326 -113t125 -305v-4q0 -75 -16.5 -136t-57.5 -124t-92 -119.5t-139 -142.5l-240 -244h547v-266h-932z" />
    <glyph glyph-name="three" unicode="3" horiz-adv-x="1105" 
d="M526 -25q-286 0 -473 201l178 209q132 -139 289 -139q88 0 143.5 50.5t55.5 135.5v4q0 93 -75 144t-212 51h-86l-35 188l316 350h-498v265h862v-236l-336 -352q73 -15 134 -44t112.5 -76t81 -118.5t29.5 -161.5v-6q0 -206 -134.5 -335.5t-351.5 -129.5z" />
    <glyph glyph-name="four" unicode="4" horiz-adv-x="1236" 
d="M707 0v295h-617l-37 215l674 932h260v-899h174v-248h-174v-295h-280zM379 543h328v463z" />
    <glyph glyph-name="five" unicode="5" horiz-adv-x="1122" 
d="M524 -25q-262 0 -458 183l165 221q74 -64 141.5 -96.5t145.5 -32.5q100 0 159.5 56.5t59.5 154.5v2q0 93 -64.5 148t-166.5 55q-98 0 -197 -45l-166 108l41 705h785v-267h-539l-16 -260q82 21 159 21q94 0 174.5 -26t144 -79t100 -142t36.5 -206v-6q0 -226 -139.5 -360
t-364.5 -134z" />
    <glyph glyph-name="six" unicode="6" horiz-adv-x="1196" 
d="M610 -25q-216 0 -352 136q-81 84 -123.5 214t-42.5 339v12q0 370 148.5 576t425.5 206q112 0 201.5 -33t179.5 -100l-144 -235q-123 96 -244 96q-53 0 -96.5 -19.5t-72.5 -52t-50 -77.5t-31.5 -92.5t-13.5 -100.5q130 86 269 86q91 0 169.5 -29t139.5 -84t96 -143
t35 -199v-4q0 -144 -65 -257.5t-177.5 -176t-251.5 -62.5zM602 236q99 0 155 60t56 161v4q0 99 -57 159t-156 60q-98 0 -153.5 -59t-55.5 -160v-2q0 -101 57 -162t154 -61z" />
    <glyph glyph-name="seven" unicode="7" horiz-adv-x="1103" 
d="M150 0l550 1165h-594v269h916v-222l-549 -1212h-323z" />
    <glyph glyph-name="eight" unicode="8" horiz-adv-x="1153" 
d="M578 -20q-220 0 -361 112.5t-141 298.5v6q0 129 55 211t160 135q-172 111 -172 314v8q0 168 128 278.5t331 110.5q202 0 330 -110t128 -279v-8q0 -201 -174 -314q68 -38 113 -80.5t73.5 -108.5t28.5 -151v-8q0 -191 -139.5 -303t-359.5 -112zM578 850q79 0 128.5 50.5
t49.5 133.5v2q0 78 -50 127t-128 49q-80 0 -130.5 -49t-50.5 -127v-2q0 -83 50.5 -133.5t130.5 -50.5zM578 223q96 0 154.5 53t58.5 140v4q0 87 -60 138.5t-153 51.5q-94 0 -153.5 -51t-59.5 -139v-4q0 -87 58.5 -140t154.5 -53z" />
    <glyph glyph-name="nine" unicode="9" horiz-adv-x="1193" 
d="M535 248q65 0 115 28t80 76.5t46.5 105t20.5 120.5q-113 -89 -262 -89q-197 0 -321 120.5t-124 340.5v6q0 219 140 360.5t354 141.5q116 0 199.5 -33.5t152.5 -103.5q81 -82 123.5 -211.5t42.5 -339.5v-12q0 -374 -150 -578.5t-422 -204.5q-221 0 -405 148l143 233
q133 -108 267 -108zM594 739q97 0 153 62t56 164v4q0 105 -57 167t-156 62q-97 0 -153 -61.5t-56 -165.5v-4q0 -105 57 -166.5t156 -61.5z" />
    <glyph glyph-name="colon" unicode=":" horiz-adv-x="565" 
d="M123 782v316h317v-316h-317zM123 0v315h317v-315h-317z" />
    <glyph glyph-name="semicolon" unicode=";" horiz-adv-x="565" 
d="M123 782v316h317v-316h-317zM84 -332l-25 121q104 15 151.5 70.5t39.5 140.5h-127v315h317v-264q0 -368 -356 -383z" />
    <glyph glyph-name="less" unicode="&#x3c;" horiz-adv-x="1153" 
d="M1006 166l-891 422v266l891 422v-289l-605 -264l605 -264v-293z" />
    <glyph glyph-name="equal" unicode="=" horiz-adv-x="1153" 
d="M119 829v273h913v-273h-913zM119 340v272h913v-272h-913z" />
    <glyph glyph-name="greater" unicode="&#x3e;" horiz-adv-x="1153" 
d="M147 166v289l605 264l-605 264v293l891 -422v-266z" />
    <glyph glyph-name="question" unicode="?" horiz-adv-x="978" 
d="M342 475l-39 340l10 10q310 26 310 203v4q0 69 -47 108.5t-127 39.5q-137 0 -256 -123l-168 203q187 190 434 190q208 0 332 -110.5t124 -299.5v-2q0 -316 -354 -401l-22 -162h-197zM279 0v315h317v-315h-317z" />
    <glyph glyph-name="at" unicode="@" horiz-adv-x="1798" 
d="M899 -315q-171 0 -320.5 63.5t-256.5 174t-168.5 267t-61.5 336.5q0 185 63.5 355.5t173 297.5t266 203t331.5 76q162 0 308 -63t248 -167t162 -241.5t60 -284.5q0 -256 -108.5 -411.5t-280.5 -155.5q-107 0 -176.5 38t-104.5 97q-113 -133 -272 -133q-136 0 -226 95
t-90 255q0 148 57.5 276.5t153 203.5t203.5 75q156 0 242 -139l20 111l230 -37l-95 -541q-8 -39 -8 -86q0 -55 33 -87t92 -32q102 0 173 132.5t71 341.5q0 131 -52.5 253t-143 214t-221 147t-277.5 55q-157 0 -297 -69.5t-237 -185.5t-153.5 -272t-56.5 -325
q-1 -216 91 -388.5t257.5 -269.5t374.5 -97q129 0 234 29t209 91l40 -67q-219 -135 -487 -135zM834 336q67 0 122 55q42 44 69.5 115t27.5 143q0 84 -38 134.5t-110 50.5q-70 0 -123 -56q-39 -39 -67.5 -112.5t-28.5 -141.5q0 -88 38 -138t110 -50z" />
    <glyph glyph-name="A" unicode="A" horiz-adv-x="1380" 
d="M35 0l514 1442h282l515 -1442h-308l-106 311h-494l-104 -311h-299zM528 573h314l-156 467z" />
    <glyph glyph-name="B" unicode="B" horiz-adv-x="1280" 
d="M143 0v1434h533q250 0 375 -125q96 -101 96 -244v-6q0 -209 -195 -314q124 -48 190 -128t66 -214v-10q0 -190 -139.5 -291.5t-378.5 -101.5h-547zM854 1010v2q0 77 -52.5 118t-148.5 41h-221v-323h207q101 0 158 41t57 121zM915 432q0 78 -57.5 122t-165.5 44h-260v-336
h266q102 0 159.5 43t57.5 125v2z" />
    <glyph glyph-name="C" unicode="C" horiz-adv-x="1267" 
d="M723 -20q-283 0 -457 199.5t-174 527.5v18q0 214 83 380.5t230.5 257.5t335.5 91q151 0 261 -49t200 -141l-178 -230q-141 144 -293 144q-147 0 -240.5 -125t-93.5 -332v-6q0 -209 96 -334t242 -125q82 0 150 36.5t145 113.5l178 -211q-104 -107 -216.5 -161t-268.5 -54z
" />
    <glyph glyph-name="D" unicode="D" horiz-adv-x="1380" 
d="M143 0v1434h463q310 0 497 -195t187 -512v-18q0 -317 -187 -513t-497 -196h-463zM604 1165h-164v-897h164q172 0 275.5 116.5t103.5 326.5v10q0 210 -103.5 327t-275.5 117z" />
    <glyph glyph-name="E" unicode="E" horiz-adv-x="1165" 
d="M143 0v1434h924v-269h-629v-309h553v-268h-553v-320h637v-268h-932z" />
    <glyph glyph-name="F" unicode="F" horiz-adv-x="1134" 
d="M143 0v1434h924v-273h-627v-321h551v-273h-551v-567h-297z" />
    <glyph glyph-name="G" unicode="G" horiz-adv-x="1376" 
d="M756 -20q-144 0 -266 51t-210.5 143.5t-138 230t-49.5 302.5v18q0 209 86 376t239 260t345 93q147 0 257.5 -41t211.5 -127l-176 -231q-65 60 -133.5 91.5t-163.5 31.5q-155 0 -258 -127t-103 -324v-16q0 -215 105 -338t268 -123q133 0 213 59v254h-260v258h543v-663
q-238 -178 -510 -178z" />
    <glyph glyph-name="H" unicode="H" horiz-adv-x="1351" 
d="M143 0v1434h297v-576h471v576h297v-1434h-297v584h-471v-584h-297z" />
    <glyph glyph-name="I" unicode="I" horiz-adv-x="604" 
d="M154 0v1434h297v-1434h-297z" />
    <glyph glyph-name="J" unicode="J" horiz-adv-x="991" 
d="M412 -18q-125 0 -225.5 50t-168.5 132l181 209q98 -113 202 -113q78 0 121 52t43 159v963h299v-977q0 -234 -123 -357q-118 -118 -329 -118z" />
    <glyph glyph-name="K" unicode="K" horiz-adv-x="1296" 
d="M143 0v1434h297v-619l469 619h351l-482 -609l502 -825h-348l-359 590l-133 -168v-422h-297z" />
    <glyph glyph-name="L" unicode="L" horiz-adv-x="1075" 
d="M143 0v1434h297v-1162h580v-272h-877z" />
    <glyph glyph-name="M" unicode="M" horiz-adv-x="1546" 
d="M143 0v1434h312l319 -582l316 582h313v-1434h-291v915l-338 -591h-6l-336 587v-911h-289z" />
    <glyph glyph-name="N" unicode="N" horiz-adv-x="1398" 
d="M143 0v1434h273l549 -836v836h290v-1434h-254l-567 866v-866h-291z" />
    <glyph glyph-name="O" unicode="O" horiz-adv-x="1480" 
d="M739 -25q-188 0 -335.5 92t-229.5 257.5t-82 377.5v25q0 212 83 379t231 259.5t335 92.5q188 0 336 -92t230 -258t82 -377v-24q0 -211 -83 -378.5t-231.5 -260.5t-335.5 -93zM741 250q151 0 245.5 124.5t94.5 334.5v14q0 210 -95.5 335.5t-246.5 125.5
q-153 0 -247.5 -124.5t-94.5 -334.5v-14q0 -209 96.5 -335t247.5 -126z" />
    <glyph glyph-name="P" unicode="P" horiz-adv-x="1196" 
d="M143 0v1434h478q242 0 383 -132t141 -360v-4q0 -121 -41.5 -216.5t-114.5 -156.5t-170 -94t-211 -35h-168v-436h-297zM440 702h166q113 0 176.5 64t63.5 166v2q0 112 -62.5 171.5t-181.5 59.5h-162v-463z" />
    <glyph glyph-name="Q" unicode="Q" horiz-adv-x="1484" 
d="M1419 156l-178 -197l-141 131q-155 -115 -361 -115q-188 0 -335.5 92t-229.5 257.5t-82 377.5v25q0 212 83 379t231 259.5t335 92.5q188 0 336 -92t230 -258t82 -377v-24q0 -242 -113 -426zM748 248q81 0 143 33l-199 176l176 196l183 -170q30 92 30 222v20
q0 209 -95.5 334t-246.5 125q-153 0 -247.5 -123t-94.5 -332v-20q0 -216 97 -338.5t254 -122.5z" />
    <glyph glyph-name="R" unicode="R" horiz-adv-x="1284" 
d="M143 0v1434h539q251 0 389 -138q121 -121 121 -331v-9q0 -156 -71 -262.5t-195 -161.5l305 -532h-340l-264 471h-187v-471h-297zM440 733h219q112 0 173 58t61 157v2q0 106 -62.5 160.5t-177.5 54.5h-213v-432z" />
    <glyph glyph-name="S" unicode="S" horiz-adv-x="1126" 
d="M569 -18q-142 0 -278.5 52t-251.5 159l176 219q185 -162 356 -162q85 0 135 38.5t50 102.5v2q0 57 -49 98t-197 97q-84 32 -141.5 60t-112.5 66t-87 81t-51.5 102t-19.5 131v4q0 187 130.5 303.5t338.5 116.5q269 0 463 -176l-166 -225q-162 133 -305 133
q-76 0 -121 -34.5t-45 -90.5v-2q0 -61 53 -102.5t220 -110.5q200 -78 292.5 -173.5t92.5 -254.5v-4q0 -196 -134.5 -313t-347.5 -117z" />
    <glyph glyph-name="T" unicode="T" horiz-adv-x="1130" 
d="M418 0v1159h-361v275h1016v-275h-360v-1159h-295z" />
    <glyph glyph-name="U" unicode="U" horiz-adv-x="1341" 
d="M668 -23q-254 0 -398.5 148t-144.5 432v877h297v-879q0 -149 66 -226t184 -77t184 75.5t66 221.5v885h295v-871q0 -289 -146.5 -437.5t-402.5 -148.5z" />
    <glyph glyph-name="V" unicode="V" horiz-adv-x="1310" 
d="M518 -8l-483 1442h321l303 -988l304 988h313l-483 -1442h-275z" />
    <glyph glyph-name="W" unicode="W" horiz-adv-x="1976" 
d="M455 -8l-410 1442h313l242 -945l262 949h258l264 -949l240 945h307l-409 -1442h-273l-262 911l-262 -911h-270z" />
    <glyph glyph-name="X" unicode="X" horiz-adv-x="1292" 
d="M897 1434h330l-410 -701l426 -733h-338l-262 492l-264 -492h-330l424 729l-405 705h338l243 -465z" />
    <glyph glyph-name="Y" unicode="Y" horiz-adv-x="1263" 
d="M483 0v565l-467 869h336l283 -564l285 564h327l-467 -865v-569h-297z" />
    <glyph glyph-name="Z" unicode="Z" horiz-adv-x="1226" 
d="M104 0v227l654 942h-633v265h999v-228l-653 -942h653v-264h-1020z" />
    <glyph glyph-name="bracketleft" unicode="[" horiz-adv-x="843" 
d="M158 -266v1700h583v-224h-311v-1253h311v-223h-583z" />
    <glyph glyph-name="backslash" unicode="\" horiz-adv-x="950" 
d="M750 -244l-770 1860h245l772 -1860h-247z" />
    <glyph glyph-name="bracketright" unicode="]" horiz-adv-x="843" 
d="M102 -266v223h312v1253h-312v224h584v-1700h-584z" />
    <glyph glyph-name="asciicircum" unicode="^" horiz-adv-x="1024" 
d="M150 1016l258 414h208l258 -414h-204l-160 246l-160 -246h-200z" />
    <glyph glyph-name="underscore" unicode="_" horiz-adv-x="1138" 
d="M-4 -322v224h1147v-224h-1147z" />
    <glyph glyph-name="grave" unicode="`" horiz-adv-x="1024" 
d="M500 1206l-248 232l244 112l213 -344h-209z" />
    <glyph glyph-name="a" unicode="a" horiz-adv-x="1060" 
d="M385 -20q-140 0 -233 89t-93 244v13q0 175 103.5 262.5t279.5 87.5q117 0 230 -45v33q0 94 -54 143t-153 49q-109 0 -252 -61l-80 227q176 88 375 88q221 0 334 -113q112 -112 112 -331v-666h-284v119q-107 -139 -285 -139zM481 193q85 -2 140 45t55 122v93
q-73 34 -162 34q-81 0 -127.5 -39.5t-46.5 -113.5v-4q0 -66 38 -100.5t103 -36.5z" />
    <glyph glyph-name="b" unicode="b" horiz-adv-x="1200" 
d="M705 -20q-177 0 -297 161v-141h-291v1479h291v-533q118 172 297 172q83 0 157 -34.5t132.5 -100.5t93 -174t34.5 -244v-33q0 -136 -34 -243.5t-92.5 -173.5t-132.5 -100.5t-158 -34.5zM618 233q92 0 152.5 84.5t60.5 221.5v20q0 137 -60.5 221t-152.5 84q-93 0 -154 -84
t-61 -221v-20q0 -137 61.5 -221.5t153.5 -84.5z" />
    <glyph glyph-name="c" unicode="c" horiz-adv-x="991" 
d="M571 -25q-218 0 -357.5 157t-139.5 400v25q0 245 143 403t365 158q114 0 199 -36.5t159 -110.5l-158 -211q-46 48 -90.5 73t-105.5 25q-99 0 -161.5 -85.5t-62.5 -219.5v-8q0 -139 61.5 -224t168.5 -85q60 0 105.5 25t93.5 75l153 -193q-73 -81 -162 -124.5t-211 -43.5z
" />
    <glyph glyph-name="d" unicode="d" horiz-adv-x="1200" 
d="M496 -20q-83 0 -157 34.5t-133 100.5t-93.5 173.5t-34.5 243.5v33q0 136 34 244t93 174t133 100.5t158 34.5q100 0 170 -44t127 -118v523h290v-1479h-290v152q-118 -172 -297 -172zM582 233q92 0 153.5 84.5t61.5 221.5v20q0 137 -61 221t-154 84q-92 0 -152.5 -84
t-60.5 -221v-20q0 -137 60.5 -221.5t152.5 -84.5z" />
    <glyph glyph-name="e" unicode="e" horiz-adv-x="1091" 
d="M586 -25q-222 0 -368 155t-146 407v18q0 244 136 403.5t343 159.5q92 0 168.5 -29t131.5 -81.5t92.5 -125.5t56 -160.5t18.5 -186.5q0 -52 -2 -95h-656q18 -107 81 -164t157 -57q117 0 229 109l150 -176q-159 -177 -391 -177zM358 633h379q-9 116 -57 181t-129 65
q-80 0 -130.5 -64.5t-62.5 -181.5z" />
    <glyph glyph-name="f" unicode="f" horiz-adv-x="686" 
d="M162 0v852h-111v238h111v73q0 164 82 246t239 82q97 0 181 -25v-239q-63 18 -107 18q-106 0 -106 -112v-43h213v-238h-211v-852h-291z" />
    <glyph glyph-name="g" unicode="g" horiz-adv-x="1200" 
d="M541 -313q-220 0 -418 92l90 225q144 -80 311 -80q137 0 204 64t67 196v70q-63 -82 -134.5 -127t-173.5 -45q-83 0 -156 32.5t-130 95t-90 162.5t-33 226v6q0 126 33.5 226t90.5 161.5t130 94t155 32.5q103 0 173.5 -43t132.5 -119v142h290v-897q0 -255 -125 -383
q-134 -131 -417 -131zM582 332q94 0 154.5 73.5t60.5 194.5v2q0 120 -60.5 193t-154.5 73q-93 0 -153 -73t-60 -193v-2q0 -123 59.5 -195.5t153.5 -72.5z" />
    <glyph glyph-name="h" unicode="h" horiz-adv-x="1122" 
d="M117 0v1479h291v-529q56 78 121.5 123t160.5 45q153 0 238.5 -99t85.5 -271v-748h-291v662q0 95 -40.5 144.5t-115.5 49.5q-74 0 -116.5 -49.5t-42.5 -144.5v-662h-291z" />
    <glyph glyph-name="i" unicode="i" horiz-adv-x="546" 
d="M121 1214v265h303v-265h-303zM127 0v1098h291v-1098h-291z" />
    <glyph glyph-name="j" unicode="j" horiz-adv-x="546" 
d="M123 1214v265h303v-265h-303zM96 -315q-58 0 -123 10v227q36 -4 52 -4q104 0 104 117v1063h291v-1088q0 -325 -324 -325z" />
    <glyph glyph-name="k" unicode="k" horiz-adv-x="1064" 
d="M117 0v1479h291v-787l299 406h340l-349 -436l357 -662h-332l-225 440l-90 -116v-324h-291z" />
    <glyph glyph-name="l" unicode="l" horiz-adv-x="546" 
d="M127 0v1479h291v-1479h-291z" />
    <glyph glyph-name="m" unicode="m" horiz-adv-x="1712" 
d="M117 0v1098h291v-148q57 79 123 123.5t161 44.5q93 0 162.5 -42.5t108.5 -117.5q133 160 311 160q150 0 237.5 -95t87.5 -273v-750h-288v662q0 94 -39.5 144t-112.5 50t-114 -50t-41 -144v-662h-291v662q0 95 -39 144.5t-111 49.5q-73 0 -114 -50t-41 -144v-662h-291z
" />
    <glyph glyph-name="n" unicode="n" horiz-adv-x="1122" 
d="M117 0v1098h291v-148q56 78 121.5 123t160.5 45q153 0 238.5 -99t85.5 -271v-748h-291v662q0 95 -40.5 144.5t-115.5 49.5q-74 0 -116.5 -49.5t-42.5 -144.5v-662h-291z" />
    <glyph glyph-name="o" unicode="o" horiz-adv-x="1181" 
d="M590 -25q-224 0 -370 157.5t-146 402.5v22q0 244 147.5 402.5t370.5 158.5q224 0 369 -157t145 -402v-22q0 -244 -146.5 -403t-369.5 -159zM592 227q105 0 166 87.5t61 224.5v14q0 136 -63 224.5t-166 88.5q-106 0 -168 -87t-62 -224v-14q0 -134 64.5 -224t167.5 -90z
" />
    <glyph glyph-name="p" unicode="p" horiz-adv-x="1200" 
d="M117 -309v1407h291v-152q118 172 297 172q83 0 157 -34.5t132.5 -100.5t93 -174t34.5 -244v-33q0 -136 -34 -243.5t-92.5 -173.5t-132.5 -100.5t-158 -34.5q-177 0 -297 161v-450h-291zM618 233q92 0 152.5 84.5t60.5 221.5v20q0 137 -60.5 221t-152.5 84q-93 0 -154 -84
t-61 -221v-20q0 -137 61.5 -221.5t153.5 -84.5z" />
    <glyph glyph-name="q" unicode="q" horiz-adv-x="1200" 
d="M793 -309v461q-118 -172 -297 -172q-83 0 -157 34.5t-133 100.5t-93.5 173.5t-34.5 243.5v33q0 136 34 244t93 174t133 100.5t158 34.5q100 0 170 -44t127 -118v142h290v-1407h-290zM582 233q92 0 153.5 84.5t61.5 221.5v20q0 137 -61 221t-154 84q-92 0 -152.5 -84
t-60.5 -221v-20q0 -137 60.5 -221.5t152.5 -84.5z" />
    <glyph glyph-name="r" unicode="r" horiz-adv-x="751" 
d="M117 0v1098h291v-195q89 224 297 213v-315h-13q-136 0 -210 -85.5t-74 -254.5v-461h-291z" />
    <glyph glyph-name="s" unicode="s" horiz-adv-x="897" 
d="M449 -20q-104 0 -213 37t-203 114l127 205q159 -123 293 -123q58 0 87 23.5t29 60.5v4q0 27 -24 50t-50 36t-91 40q-23 10 -35 15q-53 23 -90.5 43t-78 49.5t-64.5 62t-40 78t-16 99.5v4q0 155 106.5 245.5t270.5 90.5q193 0 362 -119l-117 -209q-147 95 -249 95
q-51 0 -79 -22t-28 -56v-4q0 -43 75 -85q28 -16 124 -59q70 -33 114.5 -60t89 -66.5t66 -89.5t21.5 -113v-4q0 -164 -108 -253t-279 -89z" />
    <glyph glyph-name="t" unicode="t" horiz-adv-x="743" 
d="M453 -18q-138 0 -214.5 66t-76.5 226v578h-111v246h111v280h291v-280h217v-246h-217v-518q0 -94 90 -94q63 0 125 30v-231q-98 -57 -215 -57z" />
    <glyph glyph-name="u" unicode="u" horiz-adv-x="1122" 
d="M434 -20q-154 0 -238.5 99t-84.5 271v748h288v-662q0 -95 40.5 -144.5t115.5 -49.5t117.5 49.5t42.5 144.5v662h291v-1098h-291v147q-53 -77 -120 -122t-161 -45z" />
    <glyph glyph-name="v" unicode="v" horiz-adv-x="1079" 
d="M406 -8l-371 1106h303l205 -729l207 729h294l-368 -1106h-270z" />
    <glyph glyph-name="w" unicode="w" horiz-adv-x="1554" 
d="M332 -8l-291 1106h293l149 -649l170 653h248l172 -656l152 652h288l-294 -1106h-269l-174 651l-178 -651h-266z" />
    <glyph glyph-name="x" unicode="x" horiz-adv-x="1052" 
d="M356 1098l172 -322l174 322h302l-318 -535l330 -563h-309l-183 342l-184 -342h-303l328 559l-316 539h307z" />
    <glyph glyph-name="y" unicode="y" horiz-adv-x="1079" 
d="M545 371l200 727h295l-360 -1112q-56 -166 -129 -234.5t-201 -68.5q-124 0 -235 65l80 217q65 -37 118 -37q69 0 95 70l-373 1100h303z" />
    <glyph glyph-name="z" unicode="z" horiz-adv-x="983" 
d="M78 0v205l483 655h-467v238h815v-205l-485 -655h485v-238h-831z" />
    <glyph glyph-name="braceleft" unicode="{" horiz-adv-x="894" 
d="M768 -289q-243 34 -346 127.5t-103 249.5q0 29 10.5 96.5t10.5 96.5q0 104 -49.5 149t-155.5 45h-51v225h51q106 0 155.5 45.5t49.5 149.5q0 29 -10.5 96t-10.5 96q0 156 103 249.5t346 127.5l45 -196q-132 -29 -180.5 -76t-48.5 -137q0 -34 11 -101.5t11 -101.5
q0 -103 -58 -169.5t-165 -94.5q107 -28 165 -94.5t58 -169.5q0 -34 -11 -101.5t-11 -101.5q0 -90 48.5 -137t180.5 -76z" />
    <glyph glyph-name="bar" unicode="|" horiz-adv-x="655" 
d="M213 -244v1860h229v-1860h-229z" />
    <glyph glyph-name="braceright" unicode="}" horiz-adv-x="894" 
d="M127 -289l-47 197q133 29 182 76t49 137q0 34 -11 101.5t-11 101.5q0 103 58 169.5t165 94.5q-107 28 -165 94.5t-58 169.5q0 34 11 101.5t11 101.5q0 90 -49 137t-182 76l47 196q243 -34 345.5 -127.5t102.5 -249.5q0 -29 -10 -96t-10 -96q0 -104 49.5 -149.5
t155.5 -45.5h49v-225h-49q-106 0 -155.5 -45t-49.5 -149q0 -29 10 -97t10 -96q0 -156 -102.5 -249.5t-345.5 -127.5z" />
    <glyph glyph-name="asciitilde" unicode="~" horiz-adv-x="958" 
d="M635 492q-76 0 -172 47q-82 36 -113 36q-39 0 -59.5 -22.5t-42.5 -77.5l-156 47q61 264 232 264q76 0 172 -47q81 -34 112 -34q40 0 65 23.5t44 76.5l149 -47q-61 -266 -231 -266z" />
    <glyph glyph-name="uni00A0" unicode="&#xa0;" horiz-adv-x="458" 
 />
    <glyph glyph-name="exclamdown" unicode="&#xa1;" horiz-adv-x="602" 
d="M141 1118v316h318v-316h-318zM129 0v41l92 917h158l94 -917v-41h-344z" />
    <glyph glyph-name="cent" unicode="&#xa2;" horiz-adv-x="1019" 
d="M780 1446l-24 -174q112 -34 198 -123l-155 -209q-51 51 -86 68l-82 -592q84 10 174 94l151 -191q-72 -76 -157 -117.5t-197 -45.5l-22 -168h-199l27 198q-147 55 -236.5 196.5t-89.5 330.5v22q0 235 135 391.5t344 167.5l21 152h198zM367 723q0 -177 88 -256l77 559
q-76 -24 -120.5 -103t-44.5 -196v-4z" />
    <glyph glyph-name="sterling" unicode="&#xa3;" horiz-adv-x="1140" 
d="M100 0v195l140 51v309h-138v250h138v186q0 232 118 344q119 119 316 119q250 0 399 -197l-207 -192q-40 54 -81.5 81.5t-96.5 27.5q-61 0 -100 -39q-49 -46 -49 -152v-178h385v-250h-385v-297h524v-258h-963z" />
    <glyph glyph-name="yen" unicode="&#xa5;" horiz-adv-x="1232" 
d="M156 528v213h243l-372 693h329l262 -547l269 547h319l-377 -693h248v-213h-319v-125h319v-213h-319v-190h-285v190h-317v213h317v125h-317z" />
    <glyph glyph-name="section" unicode="&#xa7;" horiz-adv-x="1159" 
d="M891 477q80 -71 80 -184v-4q0 -141 -105 -225t-284 -84q-251 0 -410 153l143 178q126 -106 256 -106q60 0 92.5 20.5t32.5 55.5v2q0 37 -43 63t-170 64q-209 58 -301 125t-92 178v4q0 167 178 239q-80 71 -80 185v4q0 141 106 225t286 84q247 0 407 -154l-143 -178
q-124 107 -256 107q-58 0 -90.5 -21t-32.5 -55v-2q0 -36 41.5 -62.5t169.5 -64.5q210 -58 301.5 -124.5t91.5 -178.5v-4q0 -168 -178 -240zM705 586q44 0 75 26t31 66v2q0 41 -43.5 69t-138.5 58q-124 41 -174 41q-44 0 -74.5 -26t-30.5 -66v-2q0 -41 43 -69t137 -58
q124 -41 175 -41z" />
    <glyph glyph-name="dieresis" unicode="&#xa8;" horiz-adv-x="1024" 
d="M567 1208v258h275v-258h-275zM182 1208v258h275v-258h-275z" />
    <glyph glyph-name="copyright" unicode="&#xa9;" horiz-adv-x="1513" 
d="M756 -25q-186 0 -338.5 96t-239 263.5t-86.5 370.5v22q0 152 51.5 287.5t140 233t212 154t262.5 56.5q187 0 339 -96t238 -263t86 -370v-22q0 -203 -87 -371t-239.5 -264.5t-338.5 -96.5zM756 57q125 0 233.5 50t185 136.5t120.5 206.5t44 257v24q0 182 -74 329
t-207.5 231.5t-299.5 84.5t-300 -85t-209 -233.5t-75 -330.5v-25q0 -182 74.5 -329t208 -231.5t299.5 -84.5zM770 317q-156 0 -253 110.5t-97 289.5v12q0 180 100 292t256 112q84 0 143 -25t111 -74l-98 -129q-76 72 -156 72t-132 -67.5t-52 -180.5v-8q0 -115 51.5 -181.5
t134.5 -66.5q46 0 82 18.5t76 57.5l98 -117q-106 -115 -264 -115z" />
    <glyph glyph-name="ordfeminine" unicode="&#xaa;" horiz-adv-x="714" 
d="M276 819q-78 0 -128 48.5t-50 133.5v9q0 96 56.5 144t154.5 48q60 0 127 -24v18q0 51 -30.5 77.5t-86.5 26.5q-63 0 -137 -34l-47 125q96 49 211 49q117 0 180 -60q64 -61 64 -184v-367h-156v66q-60 -76 -158 -76zM90 584v123h514v-123h-514zM330 936q48 0 78 25.5
t30 66.5v51q-52 21 -90 21q-45 0 -70.5 -21t-25.5 -61v-8q0 -35 21 -54.5t57 -19.5z" />
    <glyph glyph-name="guillemotleft" unicode="&#xab;" horiz-adv-x="1206" 
d="M920 86l-342 455v16l342 455l202 -105l-231 -356l233 -356zM416 86l-342 455v16l342 455l202 -105l-231 -356l234 -356z" />
    <glyph glyph-name="registered" unicode="&#xae;" horiz-adv-x="720" 
d="M360 735q-139 0 -233 102t-94 253v12q0 151 94 253.5t233 102.5t233.5 -102.5t94.5 -253.5v-10q0 -151 -95 -254t-233 -103zM360 776q122 0 203.5 91.5t81.5 224.5v10q0 134 -81.5 224.5t-203.5 90.5t-203 -91t-81 -224v-12q0 -133 80.5 -223.5t203.5 -90.5zM221 911v381
h152q69 0 109 -31.5t40 -93.5v-2q0 -84 -71 -114l81 -140h-108l-70 119h-37v-119h-96zM317 1110h50q57 0 57 49q0 51 -57 51h-50v-100z" />
    <glyph glyph-name="macron" unicode="&#xaf;" horiz-adv-x="1024" 
d="M184 1214v199h656v-199h-656z" />
    <glyph glyph-name="degree" unicode="&#xb0;" horiz-adv-x="858" 
d="M428 750q-130 0 -222.5 98.5t-92.5 245.5v8q0 147 92.5 245.5t222.5 98.5q132 0 226 -98.5t94 -245.5v-8q0 -147 -94 -245.5t-226 -98.5zM428 905q68 0 112 53.5t44 137.5v4q0 86 -44 139t-112 53q-67 0 -110.5 -53.5t-43.5 -138.5v-4q0 -84 43.5 -137.5t110.5 -53.5z
" />
    <glyph glyph-name="plusminus" unicode="&#xb1;" horiz-adv-x="1153" 
d="M1034 725l-327 2l2 -330h-265l2 330l-327 -2v260l327 -2l-2 330h265l-2 -330l327 2v-260zM1032 0h-913v246h913v-246z" />
    <glyph glyph-name="two.sup" unicode="&#xb2;" 
d="M92 883v147l240 227q67 64 92 98t25 72q0 40 -28 64.5t-69 24.5q-39 0 -74.5 -23t-82.5 -72l-107 109q63 74 126.5 109.5t152.5 35.5q117 0 187.5 -62.5t70.5 -166.5q0 -69 -30 -123.5t-108 -128.5l-170 -158h310v-153h-535z" />
    <glyph glyph-name="three.sup" unicode="&#xb3;" 
d="M348 864q-151 0 -276 105l90 131q89 -78 184 -78q46 0 77.5 26t31.5 68q0 46 -39 70t-109 24h-69l-21 111l186 182h-284v154h497v-131l-202 -191q96 -10 155.5 -64t59.5 -149q0 -116 -76.5 -187t-204.5 -71z" />
    <glyph glyph-name="acute" unicode="&#xb4;" horiz-adv-x="1024" 
d="M307 1206l213 344l244 -112l-248 -232h-209z" />
    <glyph glyph-name="paragraph" unicode="&#xb6;" horiz-adv-x="1069" 
d="M627 0v467h-35q-113 2 -209 33t-169 89.5t-114 150.5t-41 208v4q0 154 70 264t190 164t277 54h328v-1434h-297z" />
    <glyph glyph-name="periodcentered" unicode="&#xb7;" horiz-adv-x="557" 
d="M119 477v316h317v-316h-317z" />
    <glyph glyph-name="cedilla" unicode="&#xb8;" horiz-adv-x="1024" 
d="M506 -326l-244 99l182 268h201z" />
    <glyph glyph-name="one.sup" unicode="&#xb9;" horiz-adv-x="587" 
d="M424 883h-174v602l-139 -55l-37 147l221 90h129v-784z" />
    <glyph glyph-name="ordmasculine" unicode="&#xba;" horiz-adv-x="714" 
d="M356 817q-120 0 -198 86t-78 219v15q0 134 78.5 220.5t199.5 86.5q120 0 198.5 -86t78.5 -219v-15q0 -134 -80 -220.5t-199 -86.5zM94 584v123h524v-123h-524zM358 954q54 0 86.5 48t32.5 122v11q0 75 -33 122.5t-88 47.5t-86.5 -46.5t-31.5 -121.5v-11
q0 -75 32.5 -123.5t87.5 -48.5z" />
    <glyph glyph-name="guillemotright" unicode="&#xbb;" horiz-adv-x="1206" 
d="M788 86l-202 104l233 357l-235 356l204 109l345 -455v-16zM285 86l-203 104l233 357l-233 356l203 109l344 -455v-16z" />
    <glyph glyph-name="onequarter" unicode="&#xbc;" horiz-adv-x="1492" 
d="M424 659h-174v601l-139 -56l-37 150l221 90h129v-785zM215 0l457 752l397 682h158l-457 -752l-397 -682h-158zM1333 154v-158h-157v158h-340l-13 159l322 469h188v-489h92v-139h-92zM1180 291v305h-4l-207 -305h211z" />
    <glyph glyph-name="onehalf" unicode="&#xbd;" horiz-adv-x="1492" 
d="M868 0v147l240 228q67 64 92 98t25 72q0 40 -28 64t-69 24q-39 0 -74.5 -23t-82.5 -71l-107 108q63 74 126.5 110t152.5 36q117 0 187.5 -63t70.5 -167q0 -69 -29.5 -124t-107.5 -128l-170 -157h309v-154h-535zM193 0l456 752l398 682h157l-456 -752l-398 -682h-157z
M424 659h-174v601l-139 -56l-37 150l221 90h129v-785z" />
    <glyph glyph-name="threequarters" unicode="&#xbe;" horiz-adv-x="1626" 
d="M1473 154v-158h-158v158h-340l-12 159l321 469h189v-489h92v-139h-92zM1319 291v305h-4l-207 -305h211zM344 0l457 752l397 682h158l-457 -752l-397 -682h-158zM348 641q-157 0 -276 104l90 129q92 -77 184 -77q46 0 77.5 26.5t31.5 69.5q0 46 -39 70t-109 24h-69
l-21 111l186 180h-284v156h497v-131l-202 -191q97 -11 156 -65t59 -150q0 -116 -76.5 -186t-204.5 -70z" />
    <glyph glyph-name="questiondown" unicode="&#xbf;" horiz-adv-x="978" 
d="M383 1118v316h315v-316h-315zM520 -16q-209 0 -334 110t-125 299v2q0 316 355 402l24 161h195l41 -340l-10 -10q-310 -26 -310 -202v-5q0 -69 47 -108t127 -39q137 0 256 123l168 -203q-190 -190 -434 -190z" />
    <glyph glyph-name="Agrave" unicode="&#xc0;" horiz-adv-x="1380" 
d="M35 0l514 1442h282l515 -1442h-308l-106 311h-494l-104 -311h-299zM528 573h314l-156 467zM809 1546h-221l-256 191l250 112z" />
    <glyph glyph-name="Aacute" unicode="&#xc1;" horiz-adv-x="1380" 
d="M35 0l514 1442h282l515 -1442h-308l-106 311h-494l-104 -311h-299zM528 573h314l-156 467zM567 1546l228 303l249 -112l-256 -191h-221z" />
    <glyph glyph-name="Acircumflex" unicode="&#xc2;" horiz-adv-x="1380" 
d="M35 0l514 1442h282l515 -1442h-308l-106 311h-494l-104 -311h-299zM528 573h314l-156 467zM326 1540l229 285h266l230 -285h-226l-139 111l-139 -111h-221z" />
    <glyph glyph-name="Atilde" unicode="&#xc3;" horiz-adv-x="1380" 
d="M35 0l514 1442h282l515 -1442h-308l-106 311h-494l-104 -311h-299zM528 573h314l-156 467zM858 1546q-62 0 -176 43q-83 33 -113 33q-37 0 -57.5 -21t-40.5 -71l-158 45q32 134 84 199t142 65q74 0 178 -45q87 -31 110 -31q36 0 57.5 22t41.5 73l157 -48
q-32 -135 -83.5 -199.5t-141.5 -64.5z" />
    <glyph glyph-name="Adieresis" unicode="&#xc4;" horiz-adv-x="1380" 
d="M35 0l514 1442h282l515 -1442h-308l-106 311h-494l-104 -311h-299zM528 573h314l-156 467zM754 1548v248h274v-248h-274zM348 1548v248h275v-248h-275z" />
    <glyph glyph-name="Aring" unicode="&#xc5;" horiz-adv-x="1380" 
d="M35 0l483 1368q-59 59 -59 143q0 92 67.5 151.5t163.5 59.5q97 0 164.5 -59.5t67.5 -151.5q0 -83 -62 -145l486 -1366h-308l-106 311h-494l-104 -311h-299zM528 573h314l-156 467zM690 1407q50 0 82.5 30t32.5 74q0 45 -32.5 76t-82.5 31t-82.5 -31t-32.5 -76
q0 -44 32.5 -74t82.5 -30z" />
    <glyph glyph-name="AE" unicode="&#xc6;" horiz-adv-x="1843" 
d="M12 0l656 1434h1077v-269h-594v-309h518v-268h-518v-320h602v-268h-897v311h-405l-140 -311h-299zM569 573h287v592h-31z" />
    <glyph glyph-name="Ccedilla" unicode="&#xc7;" horiz-adv-x="1267" 
d="M659 -326l-243 99l151 225q-218 51 -346.5 240.5t-128.5 468.5v18q0 214 83 380.5t230.5 257.5t335.5 91q151 0 261 -49t200 -141l-178 -230q-141 144 -293 144q-147 0 -240.5 -125t-93.5 -332v-6q0 -209 96 -334t242 -125q82 0 150 36.5t145 113.5l178 -211
q-95 -99 -196.5 -151.5t-235.5 -61.5z" />
    <glyph glyph-name="Egrave" unicode="&#xc8;" horiz-adv-x="1165" 
d="M729 1534h-221l-256 190l250 113zM143 0v1434h924v-269h-629v-309h553v-268h-553v-320h637v-268h-932z" />
    <glyph glyph-name="Eacute" unicode="&#xc9;" horiz-adv-x="1165" 
d="M485 1534l228 303l250 -113l-256 -190h-222zM143 0v1434h924v-269h-629v-309h553v-268h-553v-320h637v-268h-932z" />
    <glyph glyph-name="Ecircumflex" unicode="&#xca;" horiz-adv-x="1165" 
d="M143 0v1434h924v-269h-629v-309h553v-268h-553v-320h637v-268h-932zM246 1534l229 285h266l230 -285h-226l-139 111l-139 -111h-221z" />
    <glyph glyph-name="Edieresis" unicode="&#xcb;" horiz-adv-x="1165" 
d="M674 1536v248h274v-248h-274zM268 1536v248h275v-248h-275zM143 0v1434h924v-269h-629v-309h553v-268h-553v-320h637v-268h-932z" />
    <glyph glyph-name="Igrave" unicode="&#xcc;" horiz-adv-x="604" 
d="M154 0v1434h297v-1434h-297zM424 1534h-221l-256 190l250 113z" />
    <glyph glyph-name="Iacute" unicode="&#xcd;" horiz-adv-x="604" 
d="M154 0v1434h297v-1434h-297zM182 1534l228 303l249 -113l-256 -190h-221z" />
    <glyph glyph-name="Icircumflex" unicode="&#xce;" horiz-adv-x="604" 
d="M154 0v1434h297v-1434h-297zM-59 1534l229 285h266l230 -285h-226l-139 111l-139 -111h-221z" />
    <glyph glyph-name="Idieresis" unicode="&#xcf;" horiz-adv-x="604" 
d="M154 0v1434h297v-1434h-297zM369 1536v248h274v-248h-274zM-37 1536v248h275v-248h-275z" />
    <glyph glyph-name="Eth" unicode="&#xd0;" horiz-adv-x="1429" 
d="M190 0v590h-129v262h129v582h463q308 0 497 -195.5t189 -511.5v-18q0 -208 -85 -369t-241.5 -250.5t-359.5 -89.5h-463zM735 590h-248v-322h164q174 0 277.5 116.5t103.5 326.5v10q0 210 -104 327t-277 117h-164v-313h248v-262z" />
    <glyph glyph-name="Ntilde" unicode="&#xd1;" horiz-adv-x="1398" 
d="M866 1534q-62 0 -176 43q-82 33 -112 33q-37 0 -58 -21t-41 -71l-157 45q32 135 83.5 199.5t141.5 64.5q74 0 178 -45q87 -31 111 -31q36 0 57 21.5t41 72.5l158 -47q-32 -134 -84 -199t-142 -65zM143 0v1434h273l549 -836v836h290v-1434h-254l-567 866v-866h-291z" />
    <glyph glyph-name="Ograve" unicode="&#xd2;" horiz-adv-x="1480" 
d="M858 1546h-221l-256 191l250 112zM739 -25q-188 0 -335.5 92t-229.5 257.5t-82 377.5v25q0 212 83 379t231 259.5t335 92.5q188 0 336 -92t230 -258t82 -377v-24q0 -211 -83 -378.5t-231.5 -260.5t-335.5 -93zM741 250q151 0 245.5 124.5t94.5 334.5v14
q0 210 -95.5 335.5t-246.5 125.5q-153 0 -247.5 -124.5t-94.5 -334.5v-14q0 -209 96.5 -335t247.5 -126z" />
    <glyph glyph-name="Oacute" unicode="&#xd3;" horiz-adv-x="1480" 
d="M618 1546l228 303l250 -112l-256 -191h-222zM739 -25q-188 0 -335.5 92t-229.5 257.5t-82 377.5v25q0 212 83 379t231 259.5t335 92.5q188 0 336 -92t230 -258t82 -377v-24q0 -211 -83 -378.5t-231.5 -260.5t-335.5 -93zM741 250q151 0 245.5 124.5t94.5 334.5v14
q0 210 -95.5 335.5t-246.5 125.5q-153 0 -247.5 -124.5t-94.5 -334.5v-14q0 -209 96.5 -335t247.5 -126z" />
    <glyph glyph-name="Ocircumflex" unicode="&#xd4;" horiz-adv-x="1480" 
d="M739 -25q-188 0 -335.5 92t-229.5 257.5t-82 377.5v25q0 212 83 379t231 259.5t335 92.5q188 0 336 -92t230 -258t82 -377v-24q0 -211 -83 -378.5t-231.5 -260.5t-335.5 -93zM741 250q151 0 245.5 124.5t94.5 334.5v14q0 210 -95.5 335.5t-246.5 125.5
q-153 0 -247.5 -124.5t-94.5 -334.5v-14q0 -209 96.5 -335t247.5 -126zM377 1546l229 285h266l230 -285h-225l-140 111l-139 -111h-221z" />
    <glyph glyph-name="Otilde" unicode="&#xd5;" horiz-adv-x="1480" 
d="M907 1546q-62 0 -176 43q-82 33 -113 33q-37 0 -57.5 -21t-40.5 -71l-158 45q32 134 84 199t142 65q74 0 178 -45q87 -31 111 -31q36 0 57 22t41 73l158 -48q-32 -134 -84 -199t-142 -65zM739 -25q-188 0 -335.5 92t-229.5 257.5t-82 377.5v25q0 212 83 379t231 259.5
t335 92.5q188 0 336 -92t230 -258t82 -377v-24q0 -211 -83 -378.5t-231.5 -260.5t-335.5 -93zM741 250q151 0 245.5 124.5t94.5 334.5v14q0 210 -95.5 335.5t-246.5 125.5q-153 0 -247.5 -124.5t-94.5 -334.5v-14q0 -209 96.5 -335t247.5 -126z" />
    <glyph glyph-name="Odieresis" unicode="&#xd6;" horiz-adv-x="1480" 
d="M805 1548v248h274v-248h-274zM399 1548v248h275v-248h-275zM739 -25q-188 0 -335.5 92t-229.5 257.5t-82 377.5v25q0 212 83 379t231 259.5t335 92.5q188 0 336 -92t230 -258t82 -377v-24q0 -211 -83 -378.5t-231.5 -260.5t-335.5 -93zM741 250q151 0 245.5 124.5
t94.5 334.5v14q0 210 -95.5 335.5t-246.5 125.5q-153 0 -247.5 -124.5t-94.5 -334.5v-14q0 -209 96.5 -335t247.5 -126z" />
    <glyph glyph-name="multiply" unicode="&#xd7;" horiz-adv-x="1153" 
d="M852 252l-277 291l-276 -291l-186 176l290 291l-290 293l188 178l277 -291l276 291l186 -176l-290 -291l290 -293z" />
    <glyph glyph-name="Oslash" unicode="&#xd8;" horiz-adv-x="1480" 
d="M1143 1444h254l-164 -223q156 -199 156 -490v-24q0 -211 -83 -378.5t-231.5 -260.5t-335.5 -93t-340 97l-61 -82h-254l162 223q-154 196 -154 489v25q0 211 82.5 378t231 260t335.5 93t338 -96zM741 244q154 0 250 126t96 337v18q0 139 -43 240l-483 -664q79 -57 180 -57
zM393 709q0 -137 41 -240l484 664q-79 57 -179 57q-155 0 -250.5 -125.5t-95.5 -337.5v-18z" />
    <glyph glyph-name="Ugrave" unicode="&#xd9;" horiz-adv-x="1341" 
d="M791 1534h-222l-256 190l250 113zM668 -23q-254 0 -398.5 148t-144.5 432v877h297v-879q0 -149 66 -226t184 -77t184 75.5t66 221.5v885h295v-871q0 -289 -146.5 -437.5t-402.5 -148.5z" />
    <glyph glyph-name="Uacute" unicode="&#xda;" horiz-adv-x="1341" 
d="M549 1534l227 303l250 -113l-256 -190h-221zM668 -23q-254 0 -398.5 148t-144.5 432v877h297v-879q0 -149 66 -226t184 -77t184 75.5t66 221.5v885h295v-871q0 -289 -146.5 -437.5t-402.5 -148.5z" />
    <glyph glyph-name="Ucircumflex" unicode="&#xdb;" horiz-adv-x="1341" 
d="M668 -23q-254 0 -398.5 148t-144.5 432v877h297v-879q0 -149 66 -226t184 -77t184 75.5t66 221.5v885h295v-871q0 -289 -146.5 -437.5t-402.5 -148.5zM307 1534l230 285h266l229 -285h-225l-139 111l-140 -111h-221z" />
    <glyph glyph-name="Udieresis" unicode="&#xdc;" horiz-adv-x="1341" 
d="M735 1536v248h275v-248h-275zM330 1536v248h274v-248h-274zM668 -23q-254 0 -398.5 148t-144.5 432v877h297v-879q0 -149 66 -226t184 -77t184 75.5t66 221.5v885h295v-871q0 -289 -146.5 -437.5t-402.5 -148.5z" />
    <glyph glyph-name="Yacute" unicode="&#xdd;" horiz-adv-x="1263" 
d="M483 0v565l-467 869h336l283 -564l285 564h327l-467 -865v-569h-297zM510 1534l227 303l250 -113l-256 -190h-221z" />
    <glyph glyph-name="Thorn" unicode="&#xde;" horiz-adv-x="1204" 
d="M143 0v1434h297v-205h181q242 0 383 -132t141 -360v-4q0 -121 -41.5 -217.5t-114.5 -158t-170 -94t-211 -32.5h-168v-231h-297zM440 498h166q113 0 176.5 63.5t63.5 165.5v2q0 112 -62.5 170.5t-181.5 58.5h-162v-460z" />
    <glyph glyph-name="germandbls" unicode="&#xdf;" horiz-adv-x="1132" 
d="M549 -4v225q109 8 167 58.5t58 140.5v2q0 83 -61 137t-164 72v194q160 104 160 252v2q0 76 -39.5 121t-104.5 45q-74 0 -116.5 -55.5t-42.5 -151.5v-1038h-289v1028q0 215 122 339t336 124q194 0 305 -108t111 -271v-8q0 -119 -46.5 -196.5t-129.5 -135.5
q244 -110 244 -356v-8q0 -198 -136 -308t-374 -104z" />
    <glyph glyph-name="agrave" unicode="&#xe0;" horiz-adv-x="1060" 
d="M385 -20q-140 0 -233 89t-93 244v13q0 175 103.5 262.5t279.5 87.5q117 0 230 -45v33q0 94 -54 143t-153 49q-109 0 -252 -61l-80 227q176 88 375 88q221 0 334 -113q112 -112 112 -331v-666h-284v119q-107 -139 -285 -139zM481 193q85 -2 140 45t55 122v93
q-73 34 -162 34q-81 0 -127.5 -39.5t-46.5 -113.5v-4q0 -66 38 -100.5t103 -36.5zM438 1206l-248 232l244 112l213 -344h-209z" />
    <glyph glyph-name="aacute" unicode="&#xe1;" horiz-adv-x="1060" 
d="M385 -20q-140 0 -233 89t-93 244v13q0 175 103.5 262.5t279.5 87.5q117 0 230 -45v33q0 94 -54 143t-153 49q-109 0 -252 -61l-80 227q176 88 375 88q221 0 334 -113q112 -112 112 -331v-666h-284v119q-107 -139 -285 -139zM481 193q85 -2 140 45t55 122v93
q-73 34 -162 34q-81 0 -127.5 -39.5t-46.5 -113.5v-4q0 -66 38 -100.5t103 -36.5zM414 1206l213 344l243 -112l-247 -232h-209z" />
    <glyph glyph-name="acircumflex" unicode="&#xe2;" horiz-adv-x="1060" 
d="M385 -20q-140 0 -233 89t-93 244v13q0 175 103.5 262.5t279.5 87.5q117 0 230 -45v33q0 94 -54 143t-153 49q-109 0 -252 -61l-80 227q176 88 375 88q221 0 334 -113q112 -112 112 -331v-666h-284v119q-107 -139 -285 -139zM481 193q85 -2 140 45t55 122v93
q-73 34 -162 34q-81 0 -127.5 -39.5t-46.5 -113.5v-4q0 -66 38 -100.5t103 -36.5zM176 1206l223 310h263l223 -310h-215l-142 131l-141 -131h-211z" />
    <glyph glyph-name="atilde" unicode="&#xe3;" horiz-adv-x="1060" 
d="M385 -20q-140 0 -233 89t-93 244v13q0 175 103.5 262.5t279.5 87.5q117 0 230 -45v33q0 94 -54 143t-153 49q-109 0 -252 -61l-80 227q176 88 375 88q221 0 334 -113q112 -112 112 -331v-666h-284v119q-107 -139 -285 -139zM481 193q85 -2 140 45t55 122v93
q-73 34 -162 34q-81 0 -127.5 -39.5t-46.5 -113.5v-4q0 -66 38 -100.5t103 -36.5zM694 1204q-62 0 -168 45q-7 3 -24.5 9.5t-25.5 9.5t-20.5 7t-22 5.5t-17.5 1.5q-38 0 -58.5 -21t-40.5 -73l-155 45q33 136 82.5 200t138.5 64q56 0 168 -43q84 -35 111 -35q37 0 57.5 21.5
t40.5 72.5l155 -45q-33 -136 -82.5 -200t-138.5 -64z" />
    <glyph glyph-name="adieresis" unicode="&#xe4;" horiz-adv-x="1060" 
d="M385 -20q-140 0 -233 89t-93 244v13q0 175 103.5 262.5t279.5 87.5q117 0 230 -45v33q0 94 -54 143t-153 49q-109 0 -252 -61l-80 227q176 88 375 88q221 0 334 -113q112 -112 112 -331v-666h-284v119q-107 -139 -285 -139zM481 193q85 -2 140 45t55 122v93
q-73 34 -162 34q-81 0 -127.5 -39.5t-46.5 -113.5v-4q0 -66 38 -100.5t103 -36.5zM586 1208v258h274v-258h-274zM201 1208v258h274v-258h-274z" />
    <glyph glyph-name="aring" unicode="&#xe5;" horiz-adv-x="1060" 
d="M385 -20q-140 0 -233 89t-93 244v13q0 175 103.5 262.5t279.5 87.5q117 0 230 -45v33q0 94 -54 143t-153 49q-109 0 -252 -61l-80 227q176 88 375 88q221 0 334 -113q112 -112 112 -331v-666h-284v119q-107 -139 -285 -139zM481 193q85 -2 140 45t55 122v93
q-73 34 -162 34q-81 0 -127.5 -39.5t-46.5 -113.5v-4q0 -66 38 -100.5t103 -36.5zM530 1198q-94 0 -160.5 65t-66.5 158t66.5 158.5t160.5 65.5t161 -64.5t67 -159.5q0 -93 -67 -158t-161 -65zM530 1300q50 0 84.5 35t34.5 86t-35 87t-84 36t-83.5 -36t-34.5 -87t34 -86
t84 -35z" />
    <glyph glyph-name="ae" unicode="&#xe6;" horiz-adv-x="1685" 
d="M420 -20q-161 0 -261 91t-100 248v7q0 175 103.5 262.5t279.5 87.5q117 0 230 -45v33q0 93 -53 142.5t-152 49.5q-112 0 -254 -65l-80 231q176 88 375 88q226 0 330 -133q125 141 313 141q112 0 200.5 -45t145 -124t86 -184.5t29.5 -229.5q0 -52 -2 -95h-656
q19 -108 81 -164.5t157 -56.5q126 0 229 109l150 -176q-157 -177 -391 -177q-116 0 -213.5 47t-163.5 134q-172 -176 -383 -176zM952 633h379q-9 116 -57 181t-129 65q-80 0 -130.5 -64.5t-62.5 -181.5zM485 195q126 0 228 114q-26 80 -31 144q-76 34 -166 34
q-83 0 -129.5 -39t-46.5 -112v-6q0 -63 41 -99t104 -36z" />
    <glyph glyph-name="ccedilla" unicode="&#xe7;" horiz-adv-x="991" 
d="M506 -326l-244 99l154 227q-156 50 -249 193.5t-93 338.5v25q0 245 143 403t365 158q114 0 199 -36.5t159 -110.5l-158 -211q-46 48 -90.5 73t-105.5 25q-99 0 -161.5 -85.5t-62.5 -219.5v-8q0 -139 61.5 -224t168.5 -85q60 0 105.5 25t93.5 75l153 -193
q-137 -150 -323 -166z" />
    <glyph glyph-name="egrave" unicode="&#xe8;" horiz-adv-x="1091" 
d="M586 -25q-222 0 -368 155t-146 407v18q0 244 136 403.5t343 159.5q92 0 168.5 -29t131.5 -81.5t92.5 -125.5t56 -160.5t18.5 -186.5q0 -52 -2 -95h-656q18 -107 81 -164t157 -57q117 0 229 109l150 -176q-159 -177 -391 -177zM358 633h379q-9 116 -57 181t-129 65
q-80 0 -130.5 -64.5t-62.5 -181.5zM455 1206l-248 232l244 112l213 -344h-209z" />
    <glyph glyph-name="eacute" unicode="&#xe9;" horiz-adv-x="1091" 
d="M430 1206l213 344l244 -112l-248 -232h-209zM586 -25q-222 0 -368 155t-146 407v18q0 244 136 403.5t343 159.5q92 0 168.5 -29t131.5 -81.5t92.5 -125.5t56 -160.5t18.5 -186.5q0 -52 -2 -95h-656q18 -107 81 -164t157 -57q117 0 229 109l150 -176q-159 -177 -391 -177z
M358 633h379q-9 116 -57 181t-129 65q-80 0 -130.5 -64.5t-62.5 -181.5z" />
    <glyph glyph-name="ecircumflex" unicode="&#xea;" horiz-adv-x="1091" 
d="M193 1206l223 310h262l223 -310h-215l-141 131l-142 -131h-210zM586 -25q-222 0 -368 155t-146 407v18q0 244 136 403.5t343 159.5q92 0 168.5 -29t131.5 -81.5t92.5 -125.5t56 -160.5t18.5 -186.5q0 -52 -2 -95h-656q18 -107 81 -164t157 -57q117 0 229 109l150 -176
q-159 -177 -391 -177zM358 633h379q-9 116 -57 181t-129 65q-80 0 -130.5 -64.5t-62.5 -181.5z" />
    <glyph glyph-name="edieresis" unicode="&#xeb;" horiz-adv-x="1091" 
d="M602 1208v258h275v-258h-275zM217 1208v258h275v-258h-275zM586 -25q-222 0 -368 155t-146 407v18q0 244 136 403.5t343 159.5q92 0 168.5 -29t131.5 -81.5t92.5 -125.5t56 -160.5t18.5 -186.5q0 -52 -2 -95h-656q18 -107 81 -164t157 -57q117 0 229 109l150 -176
q-159 -177 -391 -177zM358 633h379q-9 116 -57 181t-129 65q-80 0 -130.5 -64.5t-62.5 -181.5z" />
    <glyph glyph-name="igrave" unicode="&#xec;" horiz-adv-x="546" 
d="M127 0v1098h291v-1098h-291zM180 1206l-248 232l244 112l213 -344h-209z" />
    <glyph glyph-name="iacute" unicode="&#xed;" horiz-adv-x="546" 
d="M160 1206l213 344l243 -112l-247 -232h-209zM127 0v1098h291v-1098h-291z" />
    <glyph glyph-name="icircumflex" unicode="&#xee;" horiz-adv-x="546" 
d="M-80 1206l223 310h263l223 -310h-215l-142 131l-141 -131h-211zM127 0v1098h291v-1098h-291z" />
    <glyph glyph-name="idieresis" unicode="&#xef;" horiz-adv-x="546" 
d="M330 1208v258h274v-258h-274zM-55 1208v258h274v-258h-274zM127 0v1098h291v-1098h-291z" />
    <glyph glyph-name="eth" unicode="&#xf0;" horiz-adv-x="1181" 
d="M971 1325l-135 -39q268 -324 268 -680v-20q0 -271 -140 -441t-378 -170q-222 0 -367 160t-145 410v26q0 226 123 374.5t297 148.5q62 0 109.5 -16t103.5 -52q-48 84 -140 186l-219 -59l-55 158l141 39q-66 61 -151 129h366l58 -54l211 58zM590 227q106 0 167.5 87
t61.5 223v12q0 136 -64 223.5t-167 87.5q-105 0 -166.5 -85.5t-61.5 -221.5v-12q0 -136 63.5 -225t166.5 -89z" />
    <glyph glyph-name="ntilde" unicode="&#xf1;" horiz-adv-x="1122" 
d="M117 0v1098h291v-148q56 78 121.5 123t160.5 45q153 0 238.5 -99t85.5 -271v-748h-291v662q0 95 -40.5 144.5t-115.5 49.5q-74 0 -116.5 -49.5t-42.5 -144.5v-662h-291zM729 1204q-62 0 -168 45q-7 3 -24.5 9.5t-25.5 9.5t-20.5 7t-22 5.5t-17.5 1.5q-38 0 -58.5 -21
t-40.5 -73l-155 45q33 136 82.5 200t138.5 64q56 0 168 -43q84 -35 110 -35q38 0 58.5 21.5t40.5 72.5l155 -45q-33 -136 -82.5 -200t-138.5 -64z" />
    <glyph glyph-name="ograve" unicode="&#xf2;" horiz-adv-x="1181" 
d="M590 -25q-224 0 -370 157.5t-146 402.5v22q0 244 147.5 402.5t370.5 158.5q224 0 369 -157t145 -402v-22q0 -244 -146.5 -403t-369.5 -159zM592 227q105 0 166 87.5t61 224.5v14q0 136 -63 224.5t-166 88.5q-106 0 -168 -87t-62 -224v-14q0 -134 64.5 -224t167.5 -90z
M498 1206l-248 232l244 112l213 -344h-209z" />
    <glyph glyph-name="oacute" unicode="&#xf3;" horiz-adv-x="1181" 
d="M473 1206l213 344l244 -112l-248 -232h-209zM590 -25q-224 0 -370 157.5t-146 402.5v22q0 244 147.5 402.5t370.5 158.5q224 0 369 -157t145 -402v-22q0 -244 -146.5 -403t-369.5 -159zM592 227q105 0 166 87.5t61 224.5v14q0 136 -63 224.5t-166 88.5q-106 0 -168 -87
t-62 -224v-14q0 -134 64.5 -224t167.5 -90z" />
    <glyph glyph-name="ocircumflex" unicode="&#xf4;" horiz-adv-x="1181" 
d="M236 1206l223 310h262l223 -310h-215l-141 131l-142 -131h-210zM590 -25q-224 0 -370 157.5t-146 402.5v22q0 244 147.5 402.5t370.5 158.5q224 0 369 -157t145 -402v-22q0 -244 -146.5 -403t-369.5 -159zM592 227q105 0 166 87.5t61 224.5v14q0 136 -63 224.5t-166 88.5
q-106 0 -168 -87t-62 -224v-14q0 -134 64.5 -224t167.5 -90z" />
    <glyph glyph-name="otilde" unicode="&#xf5;" horiz-adv-x="1181" 
d="M590 -25q-224 0 -370 157.5t-146 402.5v22q0 244 147.5 402.5t370.5 158.5q224 0 369 -157t145 -402v-22q0 -244 -146.5 -403t-369.5 -159zM592 227q105 0 166 87.5t61 224.5v14q0 136 -63 224.5t-166 88.5q-106 0 -168 -87t-62 -224v-14q0 -134 64.5 -224t167.5 -90z
M754 1204q-62 0 -168 45q-89 33 -111 33q-38 0 -58 -20.5t-40 -73.5l-156 45q33 136 82.5 200t138.5 64q56 0 168 -43q84 -35 111 -35q37 0 57.5 21.5t40.5 72.5l156 -45q-33 -136 -82.5 -200t-138.5 -64z" />
    <glyph glyph-name="odieresis" unicode="&#xf6;" horiz-adv-x="1181" 
d="M645 1208v258h275v-258h-275zM260 1208v258h275v-258h-275zM590 -25q-224 0 -370 157.5t-146 402.5v22q0 244 147.5 402.5t370.5 158.5q224 0 369 -157t145 -402v-22q0 -244 -146.5 -403t-369.5 -159zM592 227q105 0 166 87.5t61 224.5v14q0 136 -63 224.5t-166 88.5
q-106 0 -168 -87t-62 -224v-14q0 -134 64.5 -224t167.5 -90z" />
    <glyph glyph-name="divide" unicode="&#xf7;" horiz-adv-x="1153" 
d="M430 991v279h293v-279h-293zM1040 596h-927v250h927v-250zM430 172v279h293v-279h-293z" />
    <glyph glyph-name="oslash" unicode="&#xf8;" horiz-adv-x="1181" 
d="M903 1108h232l-142 -186q113 -155 113 -363v-22q0 -244 -146.5 -403t-369.5 -159q-146 0 -264 70l-47 -57h-234l141 184q-112 146 -112 363v22q0 244 147.5 402.5t370.5 158.5q142 0 262 -71zM592 221q110 0 173.5 89.5t63.5 228.5v14q0 65 -20 133l-330 -432
q47 -33 113 -33zM352 541q0 -68 19 -133l329 432q-53 32 -110 32q-111 0 -174.5 -88.5t-63.5 -228.5v-14z" />
    <glyph glyph-name="ugrave" unicode="&#xf9;" horiz-adv-x="1122" 
d="M434 -20q-154 0 -238.5 99t-84.5 271v748h288v-662q0 -95 40.5 -144.5t115.5 -49.5t117.5 49.5t42.5 144.5v662h291v-1098h-291v147q-53 -77 -120 -122t-161 -45zM465 1206l-248 232l244 112l213 -344h-209z" />
    <glyph glyph-name="uacute" unicode="&#xfa;" horiz-adv-x="1122" 
d="M440 1206l213 344l244 -112l-248 -232h-209zM434 -20q-154 0 -238.5 99t-84.5 271v748h288v-662q0 -95 40.5 -144.5t115.5 -49.5t117.5 49.5t42.5 144.5v662h291v-1098h-291v147q-53 -77 -120 -122t-161 -45z" />
    <glyph glyph-name="ucircumflex" unicode="&#xfb;" horiz-adv-x="1122" 
d="M203 1206l223 310h262l223 -310h-215l-141 131l-141 -131h-211zM434 -20q-154 0 -238.5 99t-84.5 271v748h288v-662q0 -95 40.5 -144.5t115.5 -49.5t117.5 49.5t42.5 144.5v662h291v-1098h-291v147q-53 -77 -120 -122t-161 -45z" />
    <glyph glyph-name="udieresis" unicode="&#xfc;" horiz-adv-x="1122" 
d="M612 1208v258h275v-258h-275zM227 1208v258h275v-258h-275zM434 -20q-154 0 -238.5 99t-84.5 271v748h288v-662q0 -95 40.5 -144.5t115.5 -49.5t117.5 49.5t42.5 144.5v662h291v-1098h-291v147q-53 -77 -120 -122t-161 -45z" />
    <glyph glyph-name="yacute" unicode="&#xfd;" horiz-adv-x="1079" 
d="M545 371l200 727h295l-360 -1112q-56 -166 -129 -234.5t-201 -68.5q-124 0 -235 65l80 217q65 -37 118 -37q69 0 95 70l-373 1100h303zM422 1206l213 344l244 -112l-248 -232h-209z" />
    <glyph glyph-name="thorn" unicode="&#xfe;" horiz-adv-x="1200" 
d="M117 -309v1788h291v-533q118 172 297 172q83 0 157 -34.5t132.5 -100.5t93 -174t34.5 -244v-33q0 -136 -34 -243.5t-92.5 -173.5t-132.5 -100.5t-158 -34.5q-177 0 -297 161v-450h-291zM618 233q92 0 152.5 84.5t60.5 221.5v20q0 137 -60.5 221t-152.5 84q-93 0 -154 -84
t-61 -221v-20q0 -137 61.5 -221.5t153.5 -84.5z" />
    <glyph glyph-name="ydieresis" unicode="&#xff;" horiz-adv-x="1079" 
d="M545 371l200 727h295l-360 -1112q-56 -166 -129 -234.5t-201 -68.5q-124 0 -235 65l80 217q65 -37 118 -37q69 0 95 70l-373 1100h303zM594 1208v258h274v-258h-274zM209 1208v258h274v-258h-274z" />
    <glyph glyph-name="Amacron" unicode="&#x100;" horiz-adv-x="1380" 
d="M35 0l514 1442h282l515 -1442h-308l-106 311h-494l-104 -311h-299zM528 573h314l-156 467zM340 1554v203h696v-203h-696z" />
    <glyph glyph-name="amacron" unicode="&#x101;" horiz-adv-x="1060" 
d="M385 -20q-140 0 -233 89t-93 244v13q0 175 103.5 262.5t279.5 87.5q117 0 230 -45v33q0 94 -54 143t-153 49q-109 0 -252 -61l-80 227q176 88 375 88q221 0 334 -113q112 -112 112 -331v-666h-284v119q-107 -139 -285 -139zM481 193q85 -2 140 45t55 122v93
q-73 34 -162 34q-81 0 -127.5 -39.5t-46.5 -113.5v-4q0 -66 38 -100.5t103 -36.5zM203 1214v199h655v-199h-655z" />
    <glyph glyph-name="Abreve" unicode="&#x102;" horiz-adv-x="1380" 
d="M35 0l514 1442h282l515 -1442h-308l-106 311h-494l-104 -311h-299zM528 573h314l-156 467zM688 1540q-148 0 -241 74t-103 209h193q32 -97 151 -97q120 0 152 97h192q-10 -135 -103 -209t-241 -74z" />
    <glyph glyph-name="abreve" unicode="&#x103;" horiz-adv-x="1060" 
d="M385 -20q-140 0 -233 89t-93 244v13q0 175 103.5 262.5t279.5 87.5q117 0 230 -45v33q0 94 -54 143t-153 49q-109 0 -252 -61l-80 227q176 88 375 88q221 0 334 -113q112 -112 112 -331v-666h-284v119q-107 -139 -285 -139zM481 193q85 -2 140 45t55 122v93
q-73 34 -162 34q-81 0 -127.5 -39.5t-46.5 -113.5v-4q0 -66 38 -100.5t103 -36.5zM530 1198q-144 0 -237 79t-105 222h191q30 -115 151 -115q122 0 152 115h190q-12 -143 -105 -222t-237 -79z" />
    <glyph glyph-name="Aogonek" unicode="&#x104;" horiz-adv-x="1380" 
d="M1356 -186v-140q-46 -6 -88 -6q-121 0 -186.5 45.5t-65.5 122.5q0 79 69 164h-47l-106 311h-494l-104 -311h-299l514 1442h282l515 -1442h-66q-49 -57 -49 -113q0 -79 125 -73zM528 573h314l-156 467z" />
    <glyph glyph-name="aogonek" unicode="&#x105;" horiz-adv-x="1060" 
d="M958 -186v-140q-46 -6 -88 -6q-121 0 -186.5 45.5t-65.5 122.5q0 78 70 164h-18v119q-107 -139 -285 -139q-140 0 -233 89t-93 244v13q0 175 103.5 262.5t279.5 87.5q117 0 230 -45v33q0 94 -54 143t-153 49q-109 0 -252 -61l-80 227q176 88 375 88q221 0 334 -113
q112 -112 112 -331v-666h-71q-49 -57 -49 -113q0 -79 124 -73zM481 193q85 -2 140 45t55 122v93q-73 34 -162 34q-81 0 -127.5 -39.5t-46.5 -113.5v-4q0 -66 38 -100.5t103 -36.5z" />
    <glyph glyph-name="Cacute" unicode="&#x106;" horiz-adv-x="1267" 
d="M723 -20q-283 0 -457 199.5t-174 527.5v18q0 214 83 380.5t230.5 257.5t335.5 91q151 0 261 -49t200 -141l-178 -230q-141 144 -293 144q-147 0 -240.5 -125t-93.5 -332v-6q0 -209 96 -334t242 -125q82 0 150 36.5t145 113.5l178 -211q-104 -107 -216.5 -161t-268.5 -54z
M584 1546l227 303l250 -112l-256 -191h-221z" />
    <glyph glyph-name="cacute" unicode="&#x107;" horiz-adv-x="991" 
d="M442 1206l213 344l244 -112l-248 -232h-209zM571 -25q-218 0 -357.5 157t-139.5 400v25q0 245 143 403t365 158q114 0 199 -36.5t159 -110.5l-158 -211q-46 48 -90.5 73t-105.5 25q-99 0 -161.5 -85.5t-62.5 -219.5v-8q0 -139 61.5 -224t168.5 -85q60 0 105.5 25t93.5 75
l153 -193q-73 -81 -162 -124.5t-211 -43.5z" />
    <glyph glyph-name="Cdotaccent" unicode="&#x10a;" horiz-adv-x="1267" 
d="M563 1548v248h283v-248h-283zM723 -20q-283 0 -457 199.5t-174 527.5v18q0 214 83 380.5t230.5 257.5t335.5 91q151 0 261 -49t200 -141l-178 -230q-141 144 -293 144q-147 0 -240.5 -125t-93.5 -332v-6q0 -209 96 -334t242 -125q82 0 150 36.5t145 113.5l178 -211
q-104 -107 -216.5 -161t-268.5 -54z" />
    <glyph glyph-name="cdotaccent" unicode="&#x10b;" horiz-adv-x="991" 
d="M571 -25q-218 0 -357.5 157t-139.5 400v25q0 245 143 403t365 158q114 0 199 -36.5t159 -110.5l-158 -211q-46 48 -90.5 73t-105.5 25q-99 0 -161.5 -85.5t-62.5 -219.5v-8q0 -139 61.5 -224t168.5 -85q60 0 105.5 25t93.5 75l153 -193q-73 -81 -162 -124.5t-211 -43.5z
M420 1208v258h278v-258h-278z" />
    <glyph glyph-name="Ccaron" unicode="&#x10c;" horiz-adv-x="1267" 
d="M723 -20q-283 0 -457 199.5t-174 527.5v18q0 214 83 380.5t230.5 257.5t335.5 91q151 0 261 -49t200 -141l-178 -230q-141 144 -293 144q-147 0 -240.5 -125t-93.5 -332v-6q0 -209 96 -334t242 -125q82 0 150 36.5t145 113.5l178 -211q-104 -107 -216.5 -161t-268.5 -54z
M1067 1831l-229 -285h-267l-229 285h225l140 -111l139 111h221z" />
    <glyph glyph-name="ccaron" unicode="&#x10d;" horiz-adv-x="991" 
d="M913 1516l-223 -310h-262l-223 310h215l141 -132l141 132h211zM571 -25q-218 0 -357.5 157t-139.5 400v25q0 245 143 403t365 158q114 0 199 -36.5t159 -110.5l-158 -211q-46 48 -90.5 73t-105.5 25q-99 0 -161.5 -85.5t-62.5 -219.5v-8q0 -139 61.5 -224t168.5 -85
q60 0 105.5 25t93.5 75l153 -193q-73 -81 -162 -124.5t-211 -43.5z" />
    <glyph glyph-name="Dcaron" unicode="&#x10e;" horiz-adv-x="1380" 
d="M143 0v1434h463q310 0 497 -195t187 -512v-18q0 -317 -187 -513t-497 -196h-463zM604 1165h-164v-897h164q172 0 275.5 116.5t103.5 326.5v10q0 210 -103.5 327t-275.5 117zM1028 1819l-229 -285h-267l-229 285h225l140 -111l139 111h221z" />
    <glyph glyph-name="dcaron" unicode="&#x10f;" horiz-adv-x="1200" 
d="M1167 1192l21 389h205v-6l-109 -383h-117zM496 -20q-83 0 -157 34.5t-133 100.5t-93.5 173.5t-34.5 243.5v33q0 136 34 244t93 174t133 100.5t158 34.5q100 0 170 -44t127 -118v523h290v-1479h-290v152q-118 -172 -297 -172zM582 233q92 0 153.5 84.5t61.5 221.5v20
q0 137 -61 221t-154 84q-92 0 -152.5 -84t-60.5 -221v-20q0 -137 60.5 -221.5t152.5 -84.5z" />
    <glyph glyph-name="Dcroat" unicode="&#x110;" horiz-adv-x="1429" 
d="M190 0v590h-129v262h129v582h463q308 0 497 -195.5t189 -511.5v-18q0 -208 -85 -369t-241.5 -250.5t-359.5 -89.5h-463zM735 590h-248v-322h164q174 0 277.5 116.5t103.5 326.5v10q0 210 -104 327t-277 117h-164v-313h248v-262z" />
    <glyph glyph-name="dcroat" unicode="&#x111;" horiz-adv-x="1200" 
d="M522 1206v176h271v97h290v-97h117v-178h-117v-1204h-290v152q-118 -172 -297 -172q-83 0 -157 34.5t-133 100.5t-93.5 173.5t-34.5 243.5v33q0 136 34 244t93 174t133 100.5t158 34.5q100 0 170 -44t127 -118v250h-271zM582 233q92 0 153.5 84.5t61.5 221.5v20
q0 137 -61 221t-154 84q-92 0 -152.5 -84t-60.5 -221v-20q0 -137 60.5 -221.5t152.5 -84.5z" />
    <glyph glyph-name="Emacron" unicode="&#x112;" horiz-adv-x="1165" 
d="M260 1542v203h696v-203h-696zM143 0v1434h924v-269h-629v-309h553v-268h-553v-320h637v-268h-932z" />
    <glyph glyph-name="emacron" unicode="&#x113;" horiz-adv-x="1091" 
d="M586 -25q-222 0 -368 155t-146 407v18q0 244 136 403.5t343 159.5q92 0 168.5 -29t131.5 -81.5t92.5 -125.5t56 -160.5t18.5 -186.5q0 -52 -2 -95h-656q18 -107 81 -164t157 -57q117 0 229 109l150 -176q-159 -177 -391 -177zM358 633h379q-9 116 -57 181t-129 65
q-80 0 -130.5 -64.5t-62.5 -181.5zM219 1214v199h655v-199h-655z" />
    <glyph glyph-name="Ebreve" unicode="&#x114;" horiz-adv-x="1165" 
d="M608 1528q-148 0 -241 73.5t-103 208.5h193q31 -96 151 -96q121 0 152 96h192q-10 -135 -103 -208.5t-241 -73.5zM143 0v1434h924v-269h-629v-309h553v-268h-553v-320h637v-268h-932z" />
    <glyph glyph-name="ebreve" unicode="&#x115;" horiz-adv-x="1091" 
d="M586 -25q-222 0 -368 155t-146 407v18q0 244 136 403.5t343 159.5q92 0 168.5 -29t131.5 -81.5t92.5 -125.5t56 -160.5t18.5 -186.5q0 -52 -2 -95h-656q18 -107 81 -164t157 -57q117 0 229 109l150 -176q-159 -177 -391 -177zM358 633h379q-9 116 -57 181t-129 65
q-80 0 -130.5 -64.5t-62.5 -181.5zM547 1198q-144 0 -237 79t-105 222h190q30 -115 152 -115q121 0 151 115h191q-12 -143 -105 -222t-237 -79z" />
    <glyph glyph-name="Edotaccent" unicode="&#x116;" horiz-adv-x="1165" 
d="M467 1536v248h283v-248h-283zM143 0v1434h924v-269h-629v-309h553v-268h-553v-320h637v-268h-932z" />
    <glyph glyph-name="edotaccent" unicode="&#x117;" horiz-adv-x="1091" 
d="M586 -25q-222 0 -368 155t-146 407v18q0 244 136 403.5t343 159.5q92 0 168.5 -29t131.5 -81.5t92.5 -125.5t56 -160.5t18.5 -186.5q0 -52 -2 -95h-656q18 -107 81 -164t157 -57q117 0 229 109l150 -176q-159 -177 -391 -177zM358 633h379q-9 116 -57 181t-129 65
q-80 0 -130.5 -64.5t-62.5 -181.5zM408 1208v258h278v-258h-278z" />
    <glyph glyph-name="Eogonek" unicode="&#x118;" horiz-adv-x="1165" 
d="M143 0v1434h924v-269h-629v-309h553v-268h-553v-320h637v-268h-78q-49 -57 -49 -113q0 -79 125 -73v-140q-47 -6 -88 -6q-121 0 -186.5 45.5t-65.5 122.5q0 78 70 164h-660z" />
    <glyph glyph-name="eogonek" unicode="&#x119;" horiz-adv-x="1091" 
d="M358 633h379q-9 116 -57 181t-129 65q-80 0 -130.5 -64.5t-62.5 -181.5zM827 328l150 -176q-23 -26 -92 -95q-97 -91 -97 -161q0 -88 125 -82v-140q-49 -6 -90 -6q-120 0 -186 44.5t-66 115.5q0 68 64 152q-30 -5 -49 -5q-222 0 -368 155t-146 407v18q0 244 136 403.5
t343 159.5q92 0 168.5 -29t131.5 -81.5t92.5 -125.5t56 -160.5t18.5 -186.5q0 -8 -1 -47t-1 -48h-656q18 -107 81 -164t157 -57q117 0 229 109z" />
    <glyph glyph-name="Ecaron" unicode="&#x11a;" horiz-adv-x="1165" 
d="M971 1819l-230 -285h-266l-229 285h225l139 -111l140 111h221zM143 0v1434h924v-269h-629v-309h553v-268h-553v-320h637v-268h-932z" />
    <glyph glyph-name="ecaron" unicode="&#x11b;" horiz-adv-x="1091" 
d="M901 1516l-223 -310h-262l-223 310h215l141 -132l141 132h211zM586 -25q-222 0 -368 155t-146 407v18q0 244 136 403.5t343 159.5q92 0 168.5 -29t131.5 -81.5t92.5 -125.5t56 -160.5t18.5 -186.5q0 -52 -2 -95h-656q18 -107 81 -164t157 -57q117 0 229 109l150 -176
q-159 -177 -391 -177zM358 633h379q-9 116 -57 181t-129 65q-80 0 -130.5 -64.5t-62.5 -181.5z" />
    <glyph glyph-name="Gbreve" unicode="&#x11e;" horiz-adv-x="1376" 
d="M733 1540q-148 0 -241 74t-103 209h193q32 -97 151 -97q120 0 152 97h192q-10 -135 -103 -209t-241 -74zM756 -20q-144 0 -266 51t-210.5 143.5t-138 230t-49.5 302.5v18q0 209 86 376t239 260t345 93q147 0 257.5 -41t211.5 -127l-176 -231q-65 60 -133.5 91.5
t-163.5 31.5q-155 0 -258 -127t-103 -324v-16q0 -215 105 -338t268 -123q133 0 213 59v254h-260v258h543v-663q-238 -178 -510 -178z" />
    <glyph glyph-name="gbreve" unicode="&#x11f;" horiz-adv-x="1200" 
d="M541 -313q-220 0 -418 92l90 225q144 -80 311 -80q137 0 204 64t67 196v70q-63 -82 -134.5 -127t-173.5 -45q-83 0 -156 32.5t-130 95t-90 162.5t-33 226v6q0 126 33.5 226t90.5 161.5t130 94t155 32.5q103 0 173.5 -43t132.5 -119v142h290v-897q0 -255 -125 -383
q-134 -131 -417 -131zM582 332q94 0 154.5 73.5t60.5 194.5v2q0 120 -60.5 193t-154.5 73q-93 0 -153 -73t-60 -193v-2q0 -123 59.5 -195.5t153.5 -72.5zM614 1198q-144 0 -237 79t-105 222h191q30 -115 151 -115q122 0 152 115h190q-12 -143 -105 -222t-237 -79z" />
    <glyph glyph-name="Gdotaccent" unicode="&#x120;" horiz-adv-x="1376" 
d="M592 1548v248h282v-248h-282zM756 -20q-144 0 -266 51t-210.5 143.5t-138 230t-49.5 302.5v18q0 209 86 376t239 260t345 93q147 0 257.5 -41t211.5 -127l-176 -231q-65 60 -133.5 91.5t-163.5 31.5q-155 0 -258 -127t-103 -324v-16q0 -215 105 -338t268 -123
q133 0 213 59v254h-260v258h543v-663q-238 -178 -510 -178z" />
    <glyph glyph-name="gdotaccent" unicode="&#x121;" horiz-adv-x="1200" 
d="M541 -313q-220 0 -418 92l90 225q144 -80 311 -80q137 0 204 64t67 196v70q-63 -82 -134.5 -127t-173.5 -45q-83 0 -156 32.5t-130 95t-90 162.5t-33 226v6q0 126 33.5 226t90.5 161.5t130 94t155 32.5q103 0 173.5 -43t132.5 -119v142h290v-897q0 -255 -125 -383
q-134 -131 -417 -131zM582 332q94 0 154.5 73.5t60.5 194.5v2q0 120 -60.5 193t-154.5 73q-93 0 -153 -73t-60 -193v-2q0 -123 59.5 -195.5t153.5 -72.5zM475 1208v258h279v-258h-279z" />
    <glyph glyph-name="Gcommaaccent" unicode="&#x122;" horiz-adv-x="1376" 
d="M596 -561l-14 90q76 7 110 40t31 95h-121v219h262v-188q0 -132 -67 -192.5t-201 -63.5zM756 -20q-144 0 -266 51t-210.5 143.5t-138 230t-49.5 302.5v18q0 209 86 376t239 260t345 93q147 0 257.5 -41t211.5 -127l-176 -231q-65 60 -133.5 91.5t-163.5 31.5
q-155 0 -258 -127t-103 -324v-16q0 -215 105 -338t268 -123q133 0 213 59v254h-260v258h543v-663q-238 -178 -510 -178z" />
    <glyph glyph-name="gcommaaccent" unicode="&#x123;" horiz-adv-x="1200" 
d="M748 1653l14 -90q-76 -7 -110 -40.5t-31 -95.5h120v-219h-262v189q0 132 67.5 192.5t201.5 63.5zM541 -313q-220 0 -418 92l90 225q144 -80 311 -80q137 0 204 64t67 196v70q-63 -82 -134.5 -127t-173.5 -45q-83 0 -156 32.5t-130 95t-90 162.5t-33 226v6q0 126 33.5 226
t90.5 161.5t130 94t155 32.5q103 0 173.5 -43t132.5 -119v142h290v-897q0 -255 -125 -383q-134 -131 -417 -131zM582 332q94 0 154.5 73.5t60.5 194.5v2q0 120 -60.5 193t-154.5 73q-93 0 -153 -73t-60 -193v-2q0 -123 59.5 -195.5t153.5 -72.5z" />
    <glyph glyph-name="Hbar" unicode="&#x126;" horiz-adv-x="1361" 
d="M25 1051v215h122v168h297v-170h474v170h294v-168h123v-215h-123v-1051h-294v584h-474v-584h-297v1051h-122zM444 858h474v197h-474v-197z" />
    <glyph glyph-name="hbar" unicode="&#x127;" horiz-adv-x="1122" 
d="M678 1206h-270v-256q56 78 121.5 123t160.5 45q153 0 238.5 -99t85.5 -271v-748h-291v662q0 95 -40.5 144.5t-115.5 49.5q-74 0 -116.5 -49.5t-42.5 -144.5v-662h-291v1204h-117v178h117v97h291v-97h270v-176z" />
    <glyph glyph-name="Imacron" unicode="&#x12a;" horiz-adv-x="604" 
d="M154 0v1434h297v-1434h-297zM-45 1542v203h696v-203h-696z" />
    <glyph glyph-name="imacron" unicode="&#x12b;" horiz-adv-x="546" 
d="M127 0v1098h291v-1098h-291zM-53 1214v199h655v-199h-655z" />
    <glyph glyph-name="Ibreve" unicode="&#x12c;" horiz-adv-x="604" 
d="M154 0v1434h297v-1434h-297zM303 1528q-148 0 -241 73.5t-103 208.5h193q31 -96 151 -96q121 0 152 96h192q-10 -135 -103 -208.5t-241 -73.5z" />
    <glyph glyph-name="ibreve" unicode="&#x12d;" horiz-adv-x="546" 
d="M127 0v1098h291v-1098h-291zM274 1198q-144 0 -237 79t-105 222h191q30 -115 151 -115q122 0 152 115h190q-12 -143 -105 -222t-237 -79z" />
    <glyph glyph-name="Iogonek" unicode="&#x12e;" horiz-adv-x="604" 
d="M154 0v1434h297v-1434h-52q-49 -57 -49 -113q0 -79 125 -73v-140q-46 -6 -88 -6q-121 0 -186.5 45.5t-65.5 122.5q0 78 70 164h-51z" />
    <glyph glyph-name="iogonek" unicode="&#x12f;" horiz-adv-x="546" 
d="M127 0v1098h291v-1098h-47q-49 -57 -49 -113q0 -79 124 -73v-140q-46 -6 -88 -6q-121 0 -186.5 45.5t-65.5 122.5q0 78 70 164h-49zM121 1214v265h303v-265h-303z" />
    <glyph glyph-name="Idotaccent" unicode="&#x130;" horiz-adv-x="604" 
d="M154 0v1434h297v-1434h-297zM162 1536v248h282v-248h-282z" />
    <glyph glyph-name="dotlessi" unicode="&#x131;" horiz-adv-x="546" 
d="M127 0v1098h291v-1098h-291z" />
    <glyph glyph-name="Kcommaaccent" unicode="&#x136;" horiz-adv-x="1296" 
d="M514 -549l-14 90q76 7 110 40t31 95h-121v220h262v-189q0 -132 -67 -192.5t-201 -63.5zM143 0v1434h297v-619l469 619h351l-482 -609l502 -825h-348l-359 590l-133 -168v-422h-297z" />
    <glyph glyph-name="kcommaaccent" unicode="&#x137;" horiz-adv-x="1064" 
d="M414 -555l-15 90q76 7 110.5 40t31.5 95h-121v219h262v-188q0 -132 -67 -192.5t-201 -63.5zM117 0v1479h291v-787l299 406h340l-349 -436l357 -662h-332l-225 440l-90 -116v-324h-291z" />
    <glyph glyph-name="Lacute" unicode="&#x139;" horiz-adv-x="1075" 
d="M211 1534l227 303l250 -113l-256 -190h-221zM143 0v1434h297v-1162h580v-272h-877z" />
    <glyph glyph-name="lacute" unicode="&#x13a;" horiz-adv-x="546" 
d="M166 1554l227 304l250 -113l-256 -191h-221zM127 0v1479h291v-1479h-291z" />
    <glyph glyph-name="Lcommaaccent" unicode="&#x13b;" horiz-adv-x="1075" 
d="M442 -555l-14 90q76 7 110 40t31 95h-120v219h262v-188q0 -132 -67.5 -192.5t-201.5 -63.5zM143 0v1434h297v-1162h580v-272h-877z" />
    <glyph glyph-name="lcommaaccent" unicode="&#x13c;" horiz-adv-x="546" 
d="M137 -555l-14 90q76 7 110 40t31 95h-121v219h263v-188q0 -132 -67.5 -192.5t-201.5 -63.5zM127 0v1479h291v-1479h-291z" />
    <glyph glyph-name="Lcaron" unicode="&#x13d;" horiz-adv-x="1075" 
d="M551 1047l20 389h205v-6l-108 -383h-117zM143 0v1434h297v-1162h580v-272h-877z" />
    <glyph glyph-name="lcaron" unicode="&#x13e;" horiz-adv-x="546" 
d="M504 1192l20 389h205v-6l-108 -383h-117zM127 0v1479h291v-1479h-291z" />
    <glyph glyph-name="Ldot" unicode="&#x13f;" horiz-adv-x="1075" 
d="M713 641v260h266v-260h-266zM143 0v1434h297v-1162h580v-272h-877z" />
    <glyph glyph-name="ldot" unicode="&#x140;" horiz-adv-x="729" 
d="M524 639v246h228v-246h-228zM127 0v1479h291v-1479h-291z" />
    <glyph glyph-name="Lslash" unicode="&#x141;" horiz-adv-x="1134" 
d="M741 766l-258 -121v-373h586v-272h-879v508l-129 -62v279l129 61v648h293v-510l258 123v-281z" />
    <glyph glyph-name="lslash" unicode="&#x142;" horiz-adv-x="653" 
d="M608 766l-137 -72v-694h-287v545l-139 -72v275l139 71v660h287v-510l137 71v-274z" />
    <glyph glyph-name="Nacute" unicode="&#x143;" horiz-adv-x="1398" 
d="M578 1534l227 303l250 -113l-256 -190h-221zM143 0v1434h273l549 -836v836h290v-1434h-254l-567 866v-866h-291z" />
    <glyph glyph-name="nacute" unicode="&#x144;" horiz-adv-x="1122" 
d="M446 1206l213 344l244 -112l-248 -232h-209zM117 0v1098h291v-148q56 78 121.5 123t160.5 45q153 0 238.5 -99t85.5 -271v-748h-291v662q0 95 -40.5 144.5t-115.5 49.5q-74 0 -116.5 -49.5t-42.5 -144.5v-662h-291z" />
    <glyph glyph-name="Ncommaaccent" unicode="&#x145;" horiz-adv-x="1398" 
d="M561 -549l-14 90q76 7 110 40t31 95h-121v220h262v-189q0 -132 -67 -192.5t-201 -63.5zM143 0v1434h273l549 -836v836h290v-1434h-254l-567 866v-866h-291z" />
    <glyph glyph-name="ncommaaccent" unicode="&#x146;" horiz-adv-x="1122" 
d="M426 -555l-14 90q76 7 110 40t31 95h-121v219h262v-188q0 -132 -67 -192.5t-201 -63.5zM117 0v1098h291v-148q56 78 121.5 123t160.5 45q153 0 238.5 -99t85.5 -271v-748h-291v662q0 95 -40.5 144.5t-115.5 49.5q-74 0 -116.5 -49.5t-42.5 -144.5v-662h-291z" />
    <glyph glyph-name="Ncaron" unicode="&#x147;" horiz-adv-x="1398" 
d="M1059 1819l-230 -285h-266l-229 285h225l139 -111l140 111h221zM143 0v1434h273l549 -836v836h290v-1434h-254l-567 866v-866h-291z" />
    <glyph glyph-name="ncaron" unicode="&#x148;" horiz-adv-x="1122" 
d="M918 1516l-224 -310h-262l-223 310h215l141 -132l142 132h211zM117 0v1098h291v-148q56 78 121.5 123t160.5 45q153 0 238.5 -99t85.5 -271v-748h-291v662q0 95 -40.5 144.5t-115.5 49.5q-74 0 -116.5 -49.5t-42.5 -144.5v-662h-291z" />
    <glyph glyph-name="Omacron" unicode="&#x14c;" horiz-adv-x="1480" 
d="M391 1554v203h696v-203h-696zM739 -25q-188 0 -335.5 92t-229.5 257.5t-82 377.5v25q0 212 83 379t231 259.5t335 92.5q188 0 336 -92t230 -258t82 -377v-24q0 -211 -83 -378.5t-231.5 -260.5t-335.5 -93zM741 250q151 0 245.5 124.5t94.5 334.5v14q0 210 -95.5 335.5
t-246.5 125.5q-153 0 -247.5 -124.5t-94.5 -334.5v-14q0 -209 96.5 -335t247.5 -126z" />
    <glyph glyph-name="omacron" unicode="&#x14d;" horiz-adv-x="1181" 
d="M262 1214v199h656v-199h-656zM590 -25q-224 0 -370 157.5t-146 402.5v22q0 244 147.5 402.5t370.5 158.5q224 0 369 -157t145 -402v-22q0 -244 -146.5 -403t-369.5 -159zM592 227q105 0 166 87.5t61 224.5v14q0 136 -63 224.5t-166 88.5q-106 0 -168 -87t-62 -224v-14
q0 -134 64.5 -224t167.5 -90z" />
    <glyph glyph-name="Obreve" unicode="&#x14e;" horiz-adv-x="1480" 
d="M739 1540q-148 0 -241 74t-103 209h193q32 -97 151 -97q120 0 152 97h192q-10 -135 -103 -209t-241 -74zM739 -25q-188 0 -335.5 92t-229.5 257.5t-82 377.5v25q0 212 83 379t231 259.5t335 92.5q188 0 336 -92t230 -258t82 -377v-24q0 -211 -83 -378.5t-231.5 -260.5
t-335.5 -93zM741 250q151 0 245.5 124.5t94.5 334.5v14q0 210 -95.5 335.5t-246.5 125.5q-153 0 -247.5 -124.5t-94.5 -334.5v-14q0 -209 96.5 -335t247.5 -126z" />
    <glyph glyph-name="obreve" unicode="&#x14f;" horiz-adv-x="1181" 
d="M590 -25q-224 0 -370 157.5t-146 402.5v22q0 244 147.5 402.5t370.5 158.5q224 0 369 -157t145 -402v-22q0 -244 -146.5 -403t-369.5 -159zM592 227q105 0 166 87.5t61 224.5v14q0 136 -63 224.5t-166 88.5q-106 0 -168 -87t-62 -224v-14q0 -134 64.5 -224t167.5 -90z
M590 1198q-144 0 -237 79t-105 222h190q30 -115 152 -115q121 0 151 115h191q-12 -143 -105 -222t-237 -79z" />
    <glyph glyph-name="Ohungarumlaut" unicode="&#x150;" horiz-adv-x="1480" 
d="M739 -25q-188 0 -335.5 92t-229.5 257.5t-82 377.5v25q0 212 83 379t231 259.5t335 92.5q188 0 336 -92t230 -258t82 -377v-24q0 -211 -83 -378.5t-231.5 -260.5t-335.5 -93zM741 250q151 0 245.5 124.5t94.5 334.5v14q0 210 -95.5 335.5t-246.5 125.5
q-153 0 -247.5 -124.5t-94.5 -334.5v-14q0 -209 96.5 -335t247.5 -126zM440 1546l226 303l237 -112l-254 -191h-209zM784 1546l228 303l235 -112l-252 -191h-211z" />
    <glyph glyph-name="ohungarumlaut" unicode="&#x151;" horiz-adv-x="1181" 
d="M633 1206l211 344l235 -112l-248 -232h-198zM301 1206l209 344l235 -112l-245 -232h-199zM590 -25q-224 0 -370 157.5t-146 402.5v22q0 244 147.5 402.5t370.5 158.5q224 0 369 -157t145 -402v-22q0 -244 -146.5 -403t-369.5 -159zM592 227q105 0 166 87.5t61 224.5v14
q0 136 -63 224.5t-166 88.5q-106 0 -168 -87t-62 -224v-14q0 -134 64.5 -224t167.5 -90z" />
    <glyph glyph-name="OE" unicode="&#x152;" horiz-adv-x="1886" 
d="M776 0q-308 0 -496 195.5t-188 511.5v18q0 208 84.5 369t240.5 250.5t359 89.5h1012v-269h-594v-309h518v-268h-518v-320h602v-268h-1020zM776 268h123v897h-121q-174 0 -277.5 -116t-103.5 -326v-10q0 -210 103.5 -327.5t275.5 -117.5z" />
    <glyph glyph-name="oe" unicode="&#x153;" horiz-adv-x="1830" 
d="M578 -25q-139 0 -254 71t-182.5 199.5t-67.5 289.5v22q0 242 147.5 401.5t364.5 159.5q108 0 200 -45.5t156 -126.5q65 81 154 126.5t194 45.5q92 0 168.5 -29t131.5 -81.5t92.5 -125.5t56 -160.5t18.5 -186.5q0 -9 -4 -95h-653q20 -108 81.5 -164.5t155.5 -56.5
q127 0 230 109l149 -176q-157 -177 -391 -177q-117 0 -216 46.5t-169 132.5q-64 -85 -157.5 -132t-204.5 -47zM1096 633h381q-9 115 -57.5 180.5t-129.5 65.5q-79 0 -129.5 -64.5t-64.5 -181.5zM586 227q102 0 160.5 87.5t58.5 224.5v14q0 136 -60.5 224.5t-160.5 88.5
q-103 0 -163.5 -87.5t-60.5 -223.5v-14q0 -134 63 -224t163 -90z" />
    <glyph glyph-name="Racute" unicode="&#x154;" horiz-adv-x="1284" 
d="M143 0v1434h539q251 0 389 -138q121 -121 121 -331v-9q0 -156 -71 -262.5t-195 -161.5l305 -532h-340l-264 471h-187v-471h-297zM440 733h219q112 0 173 58t61 157v2q0 106 -62.5 160.5t-177.5 54.5h-213v-432zM504 1534l227 303l250 -113l-256 -190h-221z" />
    <glyph glyph-name="racute" unicode="&#x155;" horiz-adv-x="751" 
d="M293 1206l213 344l244 -112l-248 -232h-209zM117 0v1098h291v-195q89 224 297 213v-315h-13q-136 0 -210 -85.5t-74 -254.5v-461h-291z" />
    <glyph glyph-name="Rcommaaccent" unicode="&#x156;" horiz-adv-x="1284" 
d="M143 0v1434h539q251 0 389 -138q121 -121 121 -331v-9q0 -156 -71 -262.5t-195 -161.5l305 -532h-340l-264 471h-187v-471h-297zM440 733h219q112 0 173 58t61 157v2q0 106 -62.5 160.5t-177.5 54.5h-213v-432zM487 -549l-14 90q76 7 110 40t31 95h-120v220h262v-189
q0 -132 -67.5 -192.5t-201.5 -63.5z" />
    <glyph glyph-name="rcommaaccent" unicode="&#x157;" horiz-adv-x="751" 
d="M139 -555l-14 90q76 7 110 40t31 95h-121v219h263v-188q0 -132 -67.5 -192.5t-201.5 -63.5zM117 0v1098h291v-195q89 224 297 213v-315h-13q-136 0 -210 -85.5t-74 -254.5v-461h-291z" />
    <glyph glyph-name="Rcaron" unicode="&#x158;" horiz-adv-x="1284" 
d="M143 0v1434h539q251 0 389 -138q121 -121 121 -331v-9q0 -156 -71 -262.5t-195 -161.5l305 -532h-340l-264 471h-187v-471h-297zM440 733h219q112 0 173 58t61 157v2q0 106 -62.5 160.5t-177.5 54.5h-213v-432zM987 1819l-229 -285h-266l-230 285h225l140 -111l139 111
h221z" />
    <glyph glyph-name="rcaron" unicode="&#x159;" horiz-adv-x="751" 
d="M762 1516l-223 -310h-263l-223 310h215l142 -132l141 132h211zM117 0v1098h291v-195q89 224 297 213v-315h-13q-136 0 -210 -85.5t-74 -254.5v-461h-291z" />
    <glyph glyph-name="Sacute" unicode="&#x15a;" horiz-adv-x="1126" 
d="M569 -18q-142 0 -278.5 52t-251.5 159l176 219q185 -162 356 -162q85 0 135 38.5t50 102.5v2q0 57 -49 98t-197 97q-84 32 -141.5 60t-112.5 66t-87 81t-51.5 102t-19.5 131v4q0 187 130.5 303.5t338.5 116.5q269 0 463 -176l-166 -225q-162 133 -305 133
q-76 0 -121 -34.5t-45 -90.5v-2q0 -61 53 -102.5t220 -110.5q200 -78 292.5 -173.5t92.5 -254.5v-4q0 -196 -134.5 -313t-347.5 -117zM449 1546l227 303l250 -112l-256 -191h-221z" />
    <glyph glyph-name="sacute" unicode="&#x15b;" horiz-adv-x="897" 
d="M338 1206l213 344l244 -112l-248 -232h-209zM449 -20q-104 0 -213 37t-203 114l127 205q159 -123 293 -123q58 0 87 23.5t29 60.5v4q0 27 -24 50t-50 36t-91 40q-23 10 -35 15q-53 23 -90.5 43t-78 49.5t-64.5 62t-40 78t-16 99.5v4q0 155 106.5 245.5t270.5 90.5
q193 0 362 -119l-117 -209q-147 95 -249 95q-51 0 -79 -22t-28 -56v-4q0 -43 75 -85q28 -16 124 -59q70 -33 114.5 -60t89 -66.5t66 -89.5t21.5 -113v-4q0 -164 -108 -253t-279 -89z" />
    <glyph glyph-name="Scedilla" unicode="&#x15e;" horiz-adv-x="1126" 
d="M555 -326l-244 99l148 217q-241 33 -420 203l176 219q185 -162 356 -162q85 0 135 38.5t50 102.5v2q0 57 -49 98t-197 97q-84 32 -141.5 60t-112.5 66t-87 81t-51.5 102t-19.5 131v4q0 187 130.5 303.5t338.5 116.5q269 0 463 -176l-166 -225q-162 133 -305 133
q-76 0 -121 -34.5t-45 -90.5v-2q0 -61 53 -102.5t220 -110.5q200 -78 292.5 -173.5t92.5 -254.5v-4q0 -170 -103 -282t-274 -140z" />
    <glyph glyph-name="scedilla" unicode="&#x15f;" horiz-adv-x="897" 
d="M428 -326l-244 99l148 219q-164 27 -299 139l127 205q159 -123 293 -123q58 0 87 23.5t29 60.5v4q0 27 -24 50t-50 36t-91 40q-23 10 -35 15q-53 23 -90.5 43t-78 49.5t-64.5 62t-40 78t-16 99.5v4q0 155 106.5 245.5t270.5 90.5q193 0 362 -119l-117 -209
q-147 95 -249 95q-51 0 -79 -22t-28 -56v-4q0 -43 75 -85q28 -16 124 -59q70 -33 114.5 -60t89 -66.5t66 -89.5t21.5 -113v-4q0 -140 -79 -225.5t-210 -108.5z" />
    <glyph glyph-name="Scaron" unicode="&#x160;" horiz-adv-x="1126" 
d="M569 -18q-142 0 -278.5 52t-251.5 159l176 219q185 -162 356 -162q85 0 135 38.5t50 102.5v2q0 57 -49 98t-197 97q-84 32 -141.5 60t-112.5 66t-87 81t-51.5 102t-19.5 131v4q0 187 130.5 303.5t338.5 116.5q269 0 463 -176l-166 -225q-162 133 -305 133
q-76 0 -121 -34.5t-45 -90.5v-2q0 -61 53 -102.5t220 -110.5q200 -78 292.5 -173.5t92.5 -254.5v-4q0 -196 -134.5 -313t-347.5 -117zM934 1831l-229 -285h-267l-229 285h225l139 -111l140 111h221z" />
    <glyph glyph-name="scaron" unicode="&#x161;" horiz-adv-x="897" 
d="M811 1516l-223 -310h-262l-224 310h215l142 -132l141 132h211zM449 -20q-104 0 -213 37t-203 114l127 205q159 -123 293 -123q58 0 87 23.5t29 60.5v4q0 27 -24 50t-50 36t-91 40q-23 10 -35 15q-53 23 -90.5 43t-78 49.5t-64.5 62t-40 78t-16 99.5v4q0 155 106.5 245.5
t270.5 90.5q193 0 362 -119l-117 -209q-147 95 -249 95q-51 0 -79 -22t-28 -56v-4q0 -43 75 -85q28 -16 124 -59q70 -33 114.5 -60t89 -66.5t66 -89.5t21.5 -113v-4q0 -164 -108 -253t-279 -89z" />
    <glyph glyph-name="Tcommaaccent" unicode="&#x162;" horiz-adv-x="1130" 
d="M428 -555l-14 90q76 7 110 40t31 95h-121v219h262v-188q0 -132 -67 -192.5t-201 -63.5zM418 0v1159h-361v275h1016v-275h-360v-1159h-295z" />
    <glyph glyph-name="tcommaaccent" unicode="&#x163;" horiz-adv-x="743" 
d="M264 -555l-14 90q76 7 110 40t31 95h-121v219h262v-188q0 -132 -67 -192.5t-201 -63.5zM453 -18q-138 0 -214.5 66t-76.5 226v578h-111v246h111v280h291v-280h217v-246h-217v-518q0 -94 90 -94q63 0 125 30v-231q-98 -57 -215 -57z" />
    <glyph glyph-name="Tcaron" unicode="&#x164;" horiz-adv-x="1130" 
d="M928 1819l-230 -285h-266l-229 285h225l139 -111l140 111h221zM418 0v1159h-361v275h1016v-275h-360v-1159h-295z" />
    <glyph glyph-name="tcaron" unicode="&#x165;" horiz-adv-x="743" 
d="M555 1192l20 389h205v-6l-108 -383h-117zM453 -18q-138 0 -214.5 66t-76.5 226v578h-111v246h111v280h291v-280h217v-246h-217v-518q0 -94 90 -94q63 0 125 30v-231q-98 -57 -215 -57z" />
    <glyph glyph-name="Umacron" unicode="&#x16a;" horiz-adv-x="1341" 
d="M322 1542v203h696v-203h-696zM668 -23q-254 0 -398.5 148t-144.5 432v877h297v-879q0 -149 66 -226t184 -77t184 75.5t66 221.5v885h295v-871q0 -289 -146.5 -437.5t-402.5 -148.5z" />
    <glyph glyph-name="umacron" unicode="&#x16b;" horiz-adv-x="1122" 
d="M434 -20q-154 0 -238.5 99t-84.5 271v748h288v-662q0 -95 40.5 -144.5t115.5 -49.5t117.5 49.5t42.5 144.5v662h291v-1098h-291v147q-53 -77 -120 -122t-161 -45zM229 1214v199h656v-199h-656z" />
    <glyph glyph-name="Ubreve" unicode="&#x16c;" horiz-adv-x="1341" 
d="M670 1511q-148 0 -241 74t-103 209h192q31 -96 152 -96q120 0 151 96h193q-10 -135 -103 -209t-241 -74zM668 -23q-254 0 -398.5 148t-144.5 432v877h297v-879q0 -149 66 -226t184 -77t184 75.5t66 221.5v885h295v-871q0 -289 -146.5 -437.5t-402.5 -148.5z" />
    <glyph glyph-name="ubreve" unicode="&#x16d;" horiz-adv-x="1122" 
d="M434 -20q-154 0 -238.5 99t-84.5 271v748h288v-662q0 -95 40.5 -144.5t115.5 -49.5t117.5 49.5t42.5 144.5v662h291v-1098h-291v147q-53 -77 -120 -122t-161 -45zM557 1198q-144 0 -237 79t-105 222h191q30 -115 151 -115q122 0 152 115h190q-12 -143 -105 -222t-237 -79
z" />
    <glyph glyph-name="Uring" unicode="&#x16e;" horiz-adv-x="1341" 
d="M668 -23q-254 0 -398.5 148t-144.5 432v877h297v-879q0 -149 66 -226t184 -77t184 75.5t66 221.5v885h295v-871q0 -289 -146.5 -437.5t-402.5 -148.5zM670 1487q-96 0 -164 59.5t-68 149.5t68 149.5t164 59.5t163.5 -59t67.5 -150t-67.5 -150t-163.5 -59zM670 1591
q50 0 82 30.5t32 74.5q0 45 -32 74.5t-82 29.5q-51 0 -83 -29.5t-32 -74.5q0 -44 32.5 -74.5t82.5 -30.5z" />
    <glyph glyph-name="uring" unicode="&#x16f;" horiz-adv-x="1122" 
d="M557 1176q-94 0 -160.5 65t-66.5 158t66.5 158t160.5 65t160.5 -64t66.5 -159q0 -93 -66.5 -158t-160.5 -65zM557 1278q50 0 84.5 35t34.5 86t-35 87t-84 36t-84 -36t-35 -87t34.5 -86t84.5 -35zM434 -20q-154 0 -238.5 99t-84.5 271v748h288v-662q0 -95 40.5 -144.5
t115.5 -49.5t117.5 49.5t42.5 144.5v662h291v-1098h-291v147q-53 -77 -120 -122t-161 -45z" />
    <glyph glyph-name="Uhungarumlaut" unicode="&#x170;" horiz-adv-x="1341" 
d="M668 -23q-254 0 -398.5 148t-144.5 432v877h297v-879q0 -149 66 -226t184 -77t184 75.5t66 221.5v885h295v-871q0 -289 -146.5 -437.5t-402.5 -148.5zM371 1534l225 303l238 -113l-254 -190h-209zM715 1534l227 303l236 -113l-252 -190h-211z" />
    <glyph glyph-name="uhungarumlaut" unicode="&#x171;" horiz-adv-x="1122" 
d="M434 -20q-154 0 -238.5 99t-84.5 271v748h288v-662q0 -95 40.5 -144.5t115.5 -49.5t117.5 49.5t42.5 144.5v662h291v-1098h-291v147q-53 -77 -120 -122t-161 -45zM600 1206l211 344l236 -112l-248 -232h-199zM268 1206l209 344l236 -112l-246 -232h-199z" />
    <glyph glyph-name="Uogonek" unicode="&#x172;" horiz-adv-x="1341" 
d="M834 -186v-140q-46 -6 -89 -6q-120 0 -185.5 45.5t-65.5 122.5q0 74 59 152q-202 30 -315 174.5t-113 394.5v877h297v-879q0 -149 66 -226t184 -77t184 75.5t66 221.5v885h295v-871q0 -267 -125.5 -413.5t-348.5 -167.5q-34 -50 -34 -95q0 -79 125 -73z" />
    <glyph glyph-name="uogonek" unicode="&#x173;" horiz-adv-x="1122" 
d="M434 -20q-154 0 -238.5 99t-84.5 271v748h288v-662q0 -95 40.5 -144.5t115.5 -49.5t117.5 49.5t42.5 144.5v662h291v-1098h-62q-49 -57 -49 -113q0 -79 125 -73v-140q-46 -6 -88 -6q-121 0 -186.5 45.5t-65.5 122.5q0 78 70 164h-35v147q-53 -77 -120 -122t-161 -45z" />
    <glyph glyph-name="Wcircumflex" unicode="&#x174;" horiz-adv-x="1976" 
d="M455 -8l-410 1442h313l242 -945l262 949h258l264 -949l240 945h307l-409 -1442h-273l-262 911l-262 -911h-270zM625 1534l229 285h266l230 -285h-226l-139 111l-139 -111h-221z" />
    <glyph glyph-name="wcircumflex" unicode="&#x175;" horiz-adv-x="1554" 
d="M420 1206l223 310h262l223 -310h-215l-141 131l-141 -131h-211zM332 -8l-291 1106h293l149 -649l170 653h248l172 -656l152 652h288l-294 -1106h-269l-174 651l-178 -651h-266z" />
    <glyph glyph-name="Ycircumflex" unicode="&#x176;" horiz-adv-x="1263" 
d="M483 0v565l-467 869h336l283 -564l285 564h327l-467 -865v-569h-297zM268 1534l230 285h266l229 -285h-225l-139 111l-140 -111h-221z" />
    <glyph glyph-name="ycircumflex" unicode="&#x177;" horiz-adv-x="1079" 
d="M545 371l200 727h295l-360 -1112q-56 -166 -129 -234.5t-201 -68.5q-124 0 -235 65l80 217q65 -37 118 -37q69 0 95 70l-373 1100h303zM184 1206l224 310h262l223 -310h-215l-141 131l-142 -131h-211z" />
    <glyph glyph-name="Ydieresis" unicode="&#x178;" horiz-adv-x="1263" 
d="M483 0v565l-467 869h336l283 -564l285 564h327l-467 -865v-569h-297zM696 1536v248h275v-248h-275zM291 1536v248h274v-248h-274z" />
    <glyph glyph-name="Zacute" unicode="&#x179;" horiz-adv-x="1226" 
d="M104 0v227l654 942h-633v265h999v-228l-653 -942h653v-264h-1020zM502 1534l227 303l250 -113l-256 -190h-221z" />
    <glyph glyph-name="zacute" unicode="&#x17a;" horiz-adv-x="983" 
d="M379 1206l213 344l244 -112l-248 -232h-209zM78 0v205l483 655h-467v238h815v-205l-485 -655h485v-238h-831z" />
    <glyph glyph-name="Zdotaccent" unicode="&#x17b;" horiz-adv-x="1226" 
d="M483 1536v248h283v-248h-283zM104 0v227l654 942h-633v265h999v-228l-653 -942h653v-264h-1020z" />
    <glyph glyph-name="zdotaccent" unicode="&#x17c;" horiz-adv-x="983" 
d="M78 0v205l483 655h-467v238h815v-205l-485 -655h485v-238h-831zM358 1208v258h279v-258h-279z" />
    <glyph glyph-name="Zcaron" unicode="&#x17d;" horiz-adv-x="1226" 
d="M987 1819l-229 -285h-266l-230 285h225l140 -111l139 111h221zM104 0v227l654 942h-633v265h999v-228l-653 -942h653v-264h-1020z" />
    <glyph glyph-name="zcaron" unicode="&#x17e;" horiz-adv-x="983" 
d="M852 1516l-223 -310h-262l-224 310h215l142 -132l141 132h211zM78 0v205l483 655h-467v238h815v-205l-485 -655h485v-238h-831z" />
    <glyph glyph-name="florin" unicode="&#x192;" horiz-adv-x="974" 
d="M184 -10q-74 0 -118 10v242q38 -6 69 -6q56 0 86.5 27t40.5 91l49 361h-123v239h160l23 166q26 160 111.5 242t246.5 82q112 0 186 -23v-245q-74 18 -120 18q-124 0 -144 -137l-14 -103h217v-239h-252l-57 -404q-26 -172 -113 -246.5t-248 -74.5z" />
    <glyph glyph-name="Aringacute" unicode="&#x1fa;" horiz-adv-x="1380" 
d="M35 0l483 1368q-59 59 -59 143q0 92 67.5 151.5t163.5 59.5q97 0 164.5 -59.5t67.5 -151.5q0 -83 -62 -145l486 -1366h-308l-106 311h-494l-104 -311h-299zM528 573h314l-156 467zM565 1772l232 264l250 -115l-259 -149h-223zM690 1407q50 0 82.5 30t32.5 74
q0 45 -32.5 76t-82.5 31t-82.5 -31t-32.5 -76q0 -44 32.5 -74t82.5 -30z" />
    <glyph glyph-name="aringacute" unicode="&#x1fb;" horiz-adv-x="1060" 
d="M418 1706l217 279l242 -109l-246 -170h-213zM385 -20q-140 0 -233 89t-93 244v13q0 175 103.5 262.5t279.5 87.5q117 0 230 -45v33q0 94 -54 143t-153 49q-109 0 -252 -61l-80 227q176 88 375 88q221 0 334 -113q112 -112 112 -331v-666h-284v119q-107 -139 -285 -139z
M481 193q85 -2 140 45t55 122v93q-73 34 -162 34q-81 0 -127.5 -39.5t-46.5 -113.5v-4q0 -66 38 -100.5t103 -36.5zM530 1198q-94 0 -160.5 65t-66.5 158t66.5 158.5t160.5 65.5t161 -64.5t67 -159.5q0 -93 -67 -158t-161 -65zM530 1300q50 0 84.5 35t34.5 86t-35 87t-84 36
t-83.5 -36t-34.5 -87t34 -86t84 -35z" />
    <glyph glyph-name="AEacute" unicode="&#x1fc;" horiz-adv-x="1843" 
d="M956 1534l228 303l250 -113l-256 -190h-222zM12 0l656 1434h1077v-269h-594v-309h518v-268h-518v-320h602v-268h-897v311h-405l-140 -311h-299zM569 573h287v592h-31z" />
    <glyph glyph-name="aeacute" unicode="&#x1fd;" horiz-adv-x="1685" 
d="M719 1206l213 344l244 -112l-248 -232h-209zM420 -20q-161 0 -261 91t-100 248v7q0 175 103.5 262.5t279.5 87.5q117 0 230 -45v33q0 93 -53 142.5t-152 49.5q-112 0 -254 -65l-80 231q176 88 375 88q226 0 330 -133q125 141 313 141q112 0 200.5 -45t145 -124t86 -184.5
t29.5 -229.5q0 -52 -2 -95h-656q19 -108 81 -164.5t157 -56.5q126 0 229 109l150 -176q-157 -177 -391 -177q-116 0 -213.5 47t-163.5 134q-172 -176 -383 -176zM952 633h379q-9 116 -57 181t-129 65q-80 0 -130.5 -64.5t-62.5 -181.5zM485 195q126 0 228 114
q-26 80 -31 144q-76 34 -166 34q-83 0 -129.5 -39t-46.5 -112v-6q0 -63 41 -99t104 -36z" />
    <glyph glyph-name="Oslashacute" unicode="&#x1fe;" horiz-adv-x="1480" 
d="M1143 1444h254l-164 -223q156 -199 156 -490v-24q0 -211 -83 -378.5t-231.5 -260.5t-335.5 -93t-340 97l-61 -82h-254l162 223q-154 196 -154 489v25q0 211 82.5 378t231 260t335.5 93t338 -96zM741 244q154 0 250 126t96 337v18q0 139 -43 240l-483 -664q79 -57 180 -57
zM393 709q0 -137 41 -240l484 664q-79 57 -179 57q-155 0 -250.5 -125.5t-95.5 -337.5v-18zM618 1546l228 303l250 -112l-256 -191h-222z" />
    <glyph glyph-name="oslashacute" unicode="&#x1ff;" horiz-adv-x="1181" 
d="M903 1108h232l-142 -186q113 -155 113 -363v-22q0 -244 -146.5 -403t-369.5 -159q-146 0 -264 70l-47 -57h-234l141 184q-112 146 -112 363v22q0 244 147.5 402.5t370.5 158.5q142 0 262 -71zM473 1206l213 344l244 -112l-248 -232h-209zM592 221q110 0 173.5 89.5
t63.5 228.5v14q0 65 -20 133l-330 -432q47 -33 113 -33zM352 541q0 -68 19 -133l329 432q-53 32 -110 32q-111 0 -174.5 -88.5t-63.5 -228.5v-14z" />
    <glyph glyph-name="Scommaaccent" unicode="&#x218;" horiz-adv-x="1126" 
d="M428 -561l-14 90q76 7 110 40t31 95h-121v219h262v-188q0 -132 -67 -192.5t-201 -63.5zM569 -18q-142 0 -278.5 52t-251.5 159l176 219q185 -162 356 -162q85 0 135 38.5t50 102.5v2q0 57 -49 98t-197 97q-84 32 -141.5 60t-112.5 66t-87 81t-51.5 102t-19.5 131v4
q0 187 130.5 303.5t338.5 116.5q269 0 463 -176l-166 -225q-162 133 -305 133q-76 0 -121 -34.5t-45 -90.5v-2q0 -61 53 -102.5t220 -110.5q200 -78 292.5 -173.5t92.5 -254.5v-4q0 -196 -134.5 -313t-347.5 -117z" />
    <glyph glyph-name="scommaaccent" unicode="&#x219;" horiz-adv-x="897" 
d="M315 -555l-14 90q76 7 110 40t31 95h-120v219h262v-188q0 -132 -67.5 -192.5t-201.5 -63.5zM449 -20q-104 0 -213 37t-203 114l127 205q159 -123 293 -123q58 0 87 23.5t29 60.5v4q0 27 -24 50t-50 36t-91 40q-23 10 -35 15q-53 23 -90.5 43t-78 49.5t-64.5 62t-40 78
t-16 99.5v4q0 155 106.5 245.5t270.5 90.5q193 0 362 -119l-117 -209q-147 95 -249 95q-51 0 -79 -22t-28 -56v-4q0 -43 75 -85q28 -16 124 -59q70 -33 114.5 -60t89 -66.5t66 -89.5t21.5 -113v-4q0 -164 -108 -253t-279 -89z" />
    <glyph glyph-name="schwa" unicode="&#x259;" horiz-adv-x="1091" 
d="M504 1122q222 0 368 -154.5t146 -406.5v-18q0 -244 -136 -403.5t-343 -159.5q-92 0 -168.5 29t-131.5 81.5t-92.5 125.5t-56 160.5t-18.5 186.5q0 51 2 94h655q-19 107 -81 164.5t-156 57.5q-118 0 -230 -109l-149 176q159 176 391 176zM731 465h-379q9 -115 57.5 -180.5
t129.5 -65.5q79 0 129.5 64.5t62.5 181.5z" />
    <glyph glyph-name="circumflex" unicode="&#x2c6;" horiz-adv-x="1024" 
d="M158 1206l223 310h262l223 -310h-215l-141 131l-141 -131h-211z" />
    <glyph glyph-name="caron" unicode="&#x2c7;" horiz-adv-x="1024" 
d="M866 1516l-223 -310h-262l-223 310h215l141 -132l141 132h211z" />
    <glyph glyph-name="breve" unicode="&#x2d8;" horiz-adv-x="1024" 
d="M512 1198q-144 0 -237 79t-105 222h190q30 -115 152 -115t152 115h190q-12 -143 -105 -222t-237 -79z" />
    <glyph glyph-name="dotaccent" unicode="&#x2d9;" horiz-adv-x="1024" 
d="M373 1208v258h278v-258h-278z" />
    <glyph glyph-name="ring" unicode="&#x2da;" horiz-adv-x="1024" 
d="M512 1198q-94 0 -160.5 65t-66.5 158t66.5 158.5t160.5 65.5t160.5 -64.5t66.5 -159.5q0 -93 -66.5 -158t-160.5 -65zM512 1300q50 0 84.5 35t34.5 86t-35 87t-84 36t-84 -36t-35 -87t34.5 -86t84.5 -35z" />
    <glyph glyph-name="ogonek" unicode="&#x2db;" horiz-adv-x="1024" 
d="M702 -186v-140q-47 -6 -88 -6q-121 0 -186.5 45.5t-65.5 122.5q0 82 89 184h194q-67 -72 -67 -133q0 -79 124 -73z" />
    <glyph glyph-name="tilde" unicode="&#x2dc;" horiz-adv-x="1024" 
d="M668 1204q-62 0 -168 45q-89 33 -111 33q-38 0 -58 -20.5t-40 -73.5l-156 45q33 136 82.5 200t138.5 64q56 0 168 -43q84 -35 111 -35q37 0 57.5 21.5t40.5 72.5l156 -45q-33 -136 -82.5 -200t-138.5 -64z" />
    <glyph glyph-name="hungarumlaut" unicode="&#x2dd;" horiz-adv-x="1024" 
d="M461 1206l211 344l235 -112l-248 -232h-198zM129 1206l209 344l235 -112l-245 -232h-199z" />
    <glyph glyph-name="commaaccent" unicode="&#x326;" horiz-adv-x="1024" 
d="M377 -555l-15 90q76 7 110.5 40t31.5 95h-121v219h262v-188q0 -132 -67 -192.5t-201 -63.5z" />
    <glyph glyph-name="baht" unicode="&#xe3f;" horiz-adv-x="1175" 
d="M571 1606h187l-21 -183q160 -26 254 -117.5t94 -240.5v-4q0 -223 -211 -318q118 -56 179 -131t61 -206v-7q0 -193 -137.5 -296t-368.5 -103h-14l-21 -244h-186l23 244h-295v1434h438zM838 434q0 77 -50.5 122.5t-142.5 51.5l-35 -358h13q101 0 158 46.5t57 133.5v4z
M385 836h117l33 348h-150v-348zM811 1012q0 123 -113 159l-32 -329q145 26 145 170zM385 250h59l35 360h-94v-360z" />
    <glyph glyph-name="Wgrave" unicode="&#x1e80;" horiz-adv-x="1976" 
d="M1106 1534h-221l-256 190l250 113zM455 -8l-410 1442h313l242 -945l262 949h258l264 -949l240 945h307l-409 -1442h-273l-262 911l-262 -911h-270z" />
    <glyph glyph-name="wgrave" unicode="&#x1e81;" horiz-adv-x="1554" 
d="M332 -8l-291 1106h293l149 -649l170 653h248l172 -656l152 652h288l-294 -1106h-269l-174 651l-178 -651h-266zM682 1206l-248 232l244 112l213 -344h-209z" />
    <glyph glyph-name="Wacute" unicode="&#x1e82;" horiz-adv-x="1976" 
d="M866 1534l228 303l249 -113l-256 -190h-221zM455 -8l-410 1442h313l242 -945l262 949h258l264 -949l240 945h307l-409 -1442h-273l-262 911l-262 -911h-270z" />
    <glyph glyph-name="wacute" unicode="&#x1e83;" horiz-adv-x="1554" 
d="M659 1206l213 344l244 -112l-248 -232h-209zM332 -8l-291 1106h293l149 -649l170 653h248l172 -656l152 652h288l-294 -1106h-269l-174 651l-178 -651h-266z" />
    <glyph glyph-name="Wdieresis" unicode="&#x1e84;" horiz-adv-x="1976" 
d="M1053 1536v248h274v-248h-274zM647 1536v248h275v-248h-275zM455 -8l-410 1442h313l242 -945l262 949h258l264 -949l240 945h307l-409 -1442h-273l-262 911l-262 -911h-270z" />
    <glyph glyph-name="wdieresis" unicode="&#x1e85;" horiz-adv-x="1554" 
d="M829 1208v258h275v-258h-275zM444 1208v258h275v-258h-275zM332 -8l-291 1106h293l149 -649l170 653h248l172 -656l152 652h288l-294 -1106h-269l-174 651l-178 -651h-266z" />
    <glyph glyph-name="Ygrave" unicode="&#x1ef2;" horiz-adv-x="1263" 
d="M483 0v565l-467 869h336l283 -564l285 564h327l-467 -865v-569h-297zM752 1534h-222l-256 190l250 113z" />
    <glyph glyph-name="ygrave" unicode="&#x1ef3;" horiz-adv-x="1079" 
d="M545 371l200 727h295l-360 -1112q-56 -166 -129 -234.5t-201 -68.5q-124 0 -235 65l80 217q65 -37 118 -37q69 0 95 70l-373 1100h303zM446 1206l-247 232l243 112l213 -344h-209z" />
    <glyph glyph-name="enspace" unicode="&#x2002;" horiz-adv-x="1024" 
 />
    <glyph glyph-name="emspace" unicode="&#x2003;" horiz-adv-x="2048" 
 />
    <glyph glyph-name="threeperemspace" unicode="&#x2004;" horiz-adv-x="681" 
 />
    <glyph glyph-name="fourperemspace" unicode="&#x2005;" horiz-adv-x="512" 
 />
    <glyph glyph-name="figurespace" unicode="&#x2007;" horiz-adv-x="1085" 
 />
    <glyph glyph-name="thinspace" unicode="&#x2009;" horiz-adv-x="272" 
 />
    <glyph glyph-name="hairspace" unicode="&#x200a;" horiz-adv-x="153" 
 />
    <glyph glyph-name="endash" unicode="&#x2013;" horiz-adv-x="1038" 
d="M96 498v274h846v-274h-846z" />
    <glyph glyph-name="emdash" unicode="&#x2014;" horiz-adv-x="1703" 
d="M96 498v274h1512v-274h-1512z" />
    <glyph glyph-name="quoteleft" unicode="&#x2018;" horiz-adv-x="548" 
d="M106 797v264q0 364 357 383l26 -121q-105 -15 -152.5 -70.5t-39.5 -140.5h127v-315h-318z" />
    <glyph glyph-name="quoteright" unicode="&#x2019;" horiz-adv-x="548" 
d="M84 786l-25 121q105 15 153 70.5t40 140.5h-127v316h317v-265q0 -368 -358 -383z" />
    <glyph glyph-name="quotesinglbase" unicode="&#x201a;" horiz-adv-x="563" 
d="M80 -332l-27 121q110 14 159.5 70t41.5 141h-127v315h317v-264q0 -188 -91.5 -281t-272.5 -102z" />
    <glyph glyph-name="quotedblleft" unicode="&#x201c;" horiz-adv-x="1030" 
d="M588 797v264q0 187 90.5 280.5t267.5 102.5l25 -121q-105 -15 -153 -70.5t-40 -140.5h127v-315h-317zM106 797v264q0 364 357 383l26 -121q-105 -15 -152.5 -70.5t-39.5 -140.5h127v-315h-318z" />
    <glyph glyph-name="quotedblright" unicode="&#x201d;" horiz-adv-x="1030" 
d="M565 786l-24 121q105 15 152.5 70.5t39.5 140.5h-127v316h318v-265q0 -367 -359 -383zM84 786l-25 121q105 15 153 70.5t40 140.5h-127v316h317v-265q0 -368 -358 -383z" />
    <glyph glyph-name="quotedblbase" unicode="&#x201e;" horiz-adv-x="1050" 
d="M567 -332l-26 121q110 14 159 70t41 141h-127v315h318v-264q0 -187 -91.5 -280.5t-273.5 -102.5zM80 -332l-27 121q110 14 159.5 70t41.5 141h-127v315h317v-264q0 -188 -91.5 -281t-272.5 -102z" />
    <glyph glyph-name="dagger" unicode="&#x2020;" horiz-adv-x="735" 
d="M283 487l22 553l-217 -20v170l215 -23l-27 267h185l-29 -267l217 23v-170l-219 20l23 -553h-170z" />
    <glyph glyph-name="daggerdbl" unicode="&#x2021;" horiz-adv-x="774" 
d="M295 0l29 264l-218 -20v170l218 -23l-23 326l23 323l-218 -20v170l218 -23l-29 267h184l-26 -267l215 23v-170l-217 20l22 -323l-22 -326l217 23v-170l-215 20l26 -264h-184z" />
    <glyph glyph-name="bullet" unicode="&#x2022;" horiz-adv-x="933" 
d="M467 416q-120 0 -201.5 85t-81.5 214v14q0 130 81.5 214.5t201.5 84.5q119 0 201 -84.5t82 -214.5v-14q0 -129 -82 -214t-201 -85z" />
    <glyph glyph-name="ellipsis" unicode="&#x2026;" horiz-adv-x="1656" 
d="M1225 0v309h311v-309h-311zM672 0v309h311v-309h-311zM119 0v309h313v-309h-313z" />
    <glyph glyph-name="perthousand" unicode="&#x2030;" horiz-adv-x="2289" 
d="M395 887q53 0 82 49.5t29 134.5v10q0 85 -31.5 136t-83.5 51q-53 0 -81.5 -50t-28.5 -135v-10q0 -85 31 -135.5t83 -50.5zM391 707q-138 0 -224.5 101.5t-86.5 258.5v16q0 159 88 263t227 104q138 0 225 -103t87 -260v-16q0 -157 -88 -260.5t-228 -103.5zM1368 1434
l-508 -762l-428 -672h-213l508 762l426 672h215zM1194 166q53 0 82 49.5t29 134.5v10q0 85 -31.5 136t-83.5 51t-81.5 -50.5t-29.5 -134.5v-10q0 -85 31.5 -135.5t83.5 -50.5zM1190 -16q-138 0 -224.5 102.5t-86.5 259.5v16q0 158 87.5 261.5t227.5 103.5
q138 0 224.5 -101.5t86.5 -258.5v-17q0 -159 -87 -262.5t-228 -103.5zM1898 166q53 0 82 49.5t29 134.5v10q0 85 -30.5 136t-82.5 51q-54 0 -82 -49.5t-28 -135.5v-10q0 -85 30 -135.5t82 -50.5zM1896 -16q-138 0 -224.5 102.5t-86.5 259.5v16q0 159 87 262t226 103
q138 0 225 -101.5t87 -258.5v-17q0 -158 -88 -262t-226 -104z" />
    <glyph glyph-name="guilsinglleft" unicode="&#x2039;" horiz-adv-x="702" 
d="M416 86l-342 455v16l342 455l202 -105l-231 -356l234 -356z" />
    <glyph glyph-name="guilsinglright" unicode="&#x203a;" horiz-adv-x="702" 
d="M285 86l-203 104l233 357l-233 356l203 109l344 -455v-16z" />
    <glyph glyph-name="fraction" unicode="&#x2044;" horiz-adv-x="180" 
d="M-416 0l457 752l397 682h158l-457 -752l-397 -682h-158z" />
    <glyph glyph-name="zero.sup" unicode="&#x2070;" 
d="M360 864q-134 0 -215.5 105.5t-81.5 290.5v18q0 186 82 291.5t217 105.5q132 0 214.5 -105.5t82.5 -289.5v-18q0 -185 -83.5 -291.5t-215.5 -106.5zM360 1516q-56 0 -88 -58t-32 -180v-16q0 -236 122 -236q55 0 88 57.5t33 178.5v16q0 121 -34 179.5t-89 58.5z" />
    <glyph glyph-name="four.sup" unicode="&#x2074;" 
d="M575 1036v-157h-157v157h-340l-12 160l321 469h188v-489h93v-140h-93zM422 1174v305h-4l-207 -305h211z" />
    <glyph glyph-name="five.sup" unicode="&#x2075;" 
d="M344 864q-78 0 -142.5 25t-131.5 76l92 133q97 -74 182 -74q56 0 87.5 28.5t31.5 77.5q0 47 -32 74t-89 27q-54 0 -123 -25l-104 60l32 391h451v-156h-311l-13 -137q43 12 107 12q112 0 184 -60.5t72 -176.5q0 -127 -80 -201t-213 -74z" />
    <glyph glyph-name="six.sup" unicode="&#x2076;" 
d="M367 864q-117 0 -191 74q-98 95 -98 303v10q0 204 83 314t238 110q117 0 213 -67l-73 -140q-64 52 -144 52q-61 0 -99 -44.5t-44 -127.5q59 41 147 41q102 0 170 -62.5t68 -185.5q0 -125 -76 -201t-194 -76zM362 1014q50 0 81.5 32t31.5 87q0 56 -30.5 87t-82.5 31
t-82 -29.5t-30 -88.5q0 -54 32 -86.5t80 -32.5z" />
    <glyph glyph-name="seven.sup" unicode="&#x2077;" 
d="M326 879h-189l295 618h-326v160h519v-131z" />
    <glyph glyph-name="eight.sup" unicode="&#x2078;" 
d="M362 864q-127 0 -204.5 63.5t-77.5 168.5q0 131 115 192q-97 60 -97 172q0 94 73 154.5t191 60.5q117 0 190 -61t73 -154q0 -111 -99 -172q117 -67 117 -190q0 -106 -79 -170t-202 -64zM362 1542q-47 0 -76.5 -27.5t-29.5 -70.5q0 -45 29.5 -71.5t76.5 -26.5
q44 0 73.5 26.5t29.5 71.5q0 43 -29.5 70.5t-73.5 27.5zM362 1214q-53 0 -86.5 -28.5t-33.5 -79.5q0 -50 32.5 -79.5t87.5 -29.5q53 0 85 29t32 80t-33 79.5t-84 28.5z" />
    <glyph glyph-name="nine.sup" unicode="&#x2079;" 
d="M358 1675q115 0 189 -71q98 -98 98 -304v-12q0 -204 -83 -314t-238 -110q-124 0 -226 74l72 139q77 -57 158 -57q60 0 98.5 43t42.5 121q-56 -41 -143 -41q-102 0 -171 64t-69 188q0 127 76.5 203.5t195.5 76.5zM360 1280q52 0 82.5 31.5t30.5 91.5q0 57 -32 91t-81 34
q-50 0 -81 -33.5t-31 -91.5t30 -90.5t82 -32.5z" />
    <glyph glyph-name="zero.inf" unicode="&#x2080;" 
d="M360 -289q-134 0 -215.5 105t-81.5 290v19q0 186 82 291.5t217 105.5q132 0 214.5 -105.5t82.5 -289.5v-18q0 -185 -83.5 -291.5t-215.5 -106.5zM360 362q-56 0 -88 -57.5t-32 -179.5v-16q0 -236 122 -236q55 0 88 57.5t33 178.5v16q0 121 -34 179t-89 58z" />
    <glyph glyph-name="one.inf" unicode="&#x2081;" horiz-adv-x="587" 
d="M424 -270h-174v602l-139 -56l-37 148l221 90h129v-784z" />
    <glyph glyph-name="two.inf" unicode="&#x2082;" 
d="M92 -270v147l240 227q67 64 92 98t25 72q0 40 -28 64t-69 24q-39 0 -74.5 -23t-82.5 -71l-107 109q63 74 126.5 109.5t152.5 35.5q117 0 187.5 -62.5t70.5 -166.5q0 -69 -30 -123.5t-108 -128.5l-170 -158h310v-153h-535z" />
    <glyph glyph-name="three.inf" unicode="&#x2083;" 
d="M348 -289q-151 0 -276 105l90 131q89 -78 184 -78q46 0 77.5 26t31.5 68q0 46 -39 70t-109 24h-69l-21 111l186 182h-284v154h497v-131l-202 -191q96 -10 155.5 -64t59.5 -149q0 -116 -76.5 -187t-204.5 -71z" />
    <glyph glyph-name="four.inf" unicode="&#x2084;" 
d="M575 -117v-157h-157v157h-340l-12 160l321 469h188v-489h93v-140h-93zM422 20v306h-4l-207 -306h211z" />
    <glyph glyph-name="five.inf" unicode="&#x2085;" 
d="M344 -289q-78 0 -142.5 25t-131.5 76l92 133q97 -74 182 -74q56 0 87.5 28.5t31.5 77.5q0 47 -32 74t-89 27q-54 0 -123 -25l-104 60l32 391h451v-156h-311l-13 -137q44 12 107 12q112 0 184 -60.5t72 -176.5q0 -127 -80 -201t-213 -74z" />
    <glyph glyph-name="six.inf" unicode="&#x2086;" 
d="M367 -289q-117 0 -191 74q-98 95 -98 303v10q0 204 83 314t238 110q117 0 213 -67l-73 -140q-64 52 -144 52q-61 0 -99 -44.5t-44 -127.5q59 41 147 41q102 0 170 -62.5t68 -185.5q0 -125 -76 -201t-194 -76zM362 -139q50 0 81.5 32t31.5 87q0 56 -30.5 87t-82.5 31
t-82 -30t-30 -88q0 -54 32 -86.5t80 -32.5z" />
    <glyph glyph-name="seven.inf" unicode="&#x2087;" 
d="M326 -274h-189l295 618h-326v160h519v-131z" />
    <glyph glyph-name="eight.inf" unicode="&#x2088;" 
d="M362 -289q-127 0 -204.5 63.5t-77.5 168.5q0 131 115 192q-97 60 -97 172q0 94 73 154.5t191 60.5q117 0 190 -61t73 -154q0 -111 -99 -172q117 -67 117 -190q0 -106 -79 -170t-202 -64zM362 389q-47 0 -76.5 -27.5t-29.5 -70.5q0 -45 29.5 -71.5t76.5 -26.5
q44 0 73.5 26.5t29.5 71.5q0 43 -29.5 70.5t-73.5 27.5zM362 61q-53 0 -86.5 -28.5t-33.5 -79.5q0 -50 32.5 -79.5t87.5 -29.5q53 0 85 29t32 80t-33 79.5t-84 28.5z" />
    <glyph glyph-name="nine.inf" unicode="&#x2089;" 
d="M358 522q115 0 189 -71q98 -98 98 -304v-12q0 -204 -83 -314t-238 -110q-124 0 -226 74l72 139q77 -57 158 -57q60 0 98.5 43t42.5 121q-56 -41 -143 -41q-102 0 -171 64t-69 188q0 127 76.5 203.5t195.5 76.5zM360 127q52 0 82.5 31.5t30.5 91.5q0 57 -32 91t-81 34
q-50 0 -81 -33.5t-31 -91.5t30 -90.5t82 -32.5z" />
    <glyph glyph-name="colonmonetary" unicode="&#x20a1;" horiz-adv-x="1095" 
d="M821 1597h123l-26 -208q63 -23 133 -76l-119 -244q-51 40 -53 41l-97 -842q48 17 133 88l136 -202q-73 -63 -141.5 -100t-153.5 -50l-29 -246h-123l29 240q-67 3 -129 18l-31 -258h-121l37 303q-148 79 -232.5 243t-84.5 398v27q0 290 131 471.5t344 222.5l22 174h121
l-18 -161q40 0 129 -13zM528 281q67 -31 142 -31l106 915q-59 19 -104 19q-6 0 -18.5 -1t-18.5 -1zM350 698q0 -220 80 -333l90 778q-80 -48 -125 -154t-45 -266v-25z" />
    <glyph glyph-name="naira" unicode="&#x20a6;" horiz-adv-x="1533" 
d="M1489 401h-195v-401h-282l-221 401h-271v-401h-280v401h-195v197h195v246h-195v196h195v394h303l213 -394h258v394h280v-394h195v-196h-195v-246h195v-197zM516 907v-315h176l-168 315h-8zM1010 561h8v289h-164z" />
    <glyph glyph-name="rupee" unicode="&#x20a8;" horiz-adv-x="1980" 
d="M127 0v1434h442q225 0 354.5 -120.5t129.5 -344.5v-11q0 -290 -234 -411l268 -547h-313l-227 481h-144v-481h-276zM1550 -20q-219 0 -403 145l123 197q151 -117 282 -117q54 0 86.5 25t32.5 65v4q0 38 -34.5 68t-147.5 82q-151 67 -221 140t-70 193v4q0 150 103 238
t262 88q195 0 346 -111l-111 -204q-142 90 -235 90q-52 0 -83.5 -23t-31.5 -59v-4q0 -38 36 -68t150 -84q155 -71 222 -143t67 -187v-4q0 -158 -105 -246.5t-268 -88.5zM403 729h156q98 0 156.5 58.5t58.5 164.5v4q0 114 -59 168t-160 54h-152v-449z" />
    <glyph glyph-name="won" unicode="&#x20a9;" horiz-adv-x="2029" 
d="M1898 1434l-94 -408h181v-203h-228l-47 -211h275v-202h-322l-94 -414h-328l-96 414h-262l-95 -414h-329l-94 414h-318v202h270l-47 211h-223v203h176l-92 408h313l76 -408h246l94 412h318l90 -412h248l75 408h307zM1012 1006l-90 -402h186l-88 402h-8zM1399 412h10
l74 417h-174zM629 412h8l90 417h-174z" />
    <glyph glyph-name="sheqel" unicode="&#x20aa;" horiz-adv-x="1183" 
d="M432 285l-49 374h145l35 -256q10 -78 50.5 -114.5t113.5 -36.5h141v846h211v-1098h-354q-130 0 -203 70t-90 215zM633 692q0 75 -35 114.5t-102 39.5h-181v-846h-213v1098h439q109 0 173 -68.5t64 -189.5v-402h-145v254z" />
    <glyph glyph-name="Euro" unicode="&#x20ac;" horiz-adv-x="1267" 
d="M1204 1251l-198 -188q-45 60 -95.5 92.5t-119.5 32.5q-79 0 -140 -50t-94 -147h330v-200h-367v-64v-16v-60h367v-200h-332q65 -205 242 -205q68 0 118.5 33t102.5 98l188 -180q-83 -108 -183 -165t-232 -57q-206 0 -347.5 125t-195.5 351h-168v200h139v56v16q0 45 2 68
h-141v200h172q56 218 197.5 342.5t343.5 124.5q139 0 234 -52.5t177 -154.5z" />
    <glyph glyph-name="peso" unicode="&#x20b1;" horiz-adv-x="1386" 
d="M233 0v827h-194v189h194v418h437q213 0 350.5 -113t165.5 -305h186v-189h-188q-30 -196 -175 -306t-354 -113h-125v-408h-297zM653 662q90 0 152 46t84 126h-365v-172h129zM524 1176v-168h365q-22 83 -83.5 125.5t-156.5 42.5h-125z" />
    <glyph glyph-name="published" unicode="&#x2117;" horiz-adv-x="1513" 
d="M756 -25q-186 0 -338.5 96t-239 263.5t-86.5 370.5v22q0 152 51.5 287.5t140 233t212 154t262.5 56.5q187 0 339 -96t238 -263t86 -370v-22q0 -203 -87 -371t-239.5 -264.5t-338.5 -96.5zM756 57q125 0 233.5 50t185 136.5t120.5 206.5t44 257v24q0 182 -74 329
t-207.5 231.5t-299.5 84.5t-300 -85t-209 -233.5t-75 -330.5v-25q0 -182 74.5 -329t208 -231.5t299.5 -84.5zM520 336v788h264q133 0 211 -72.5t78 -197.5v-4q0 -130 -83 -201t-214 -74h-92v-239h-164zM684 723h92q60 0 95.5 34t35.5 91v2q0 62 -35 94.5t-98 32.5h-90v-254z
" />
    <glyph glyph-name="servicemark" unicode="&#x2120;" horiz-adv-x="1280" 
d="M637 799v635h147l138 -250l139 250h143v-635h-133v415l-145 -268h-11l-145 268v-415h-133zM295 788q-139 0 -252 93l70 100q102 -78 186 -78q42 0 66 18t24 46q0 27 -24 45t-93 43q-105 39 -152.5 79t-47.5 115q0 87 61 141t162 54q128 0 219 -78l-70 -102
q-85 61 -151 61q-41 0 -63.5 -17t-22.5 -44t24 -43.5t93 -42.5q103 -39 151.5 -82.5t48.5 -116.5q0 -87 -64 -139t-165 -52z" />
    <glyph glyph-name="trademark" unicode="&#x2122;" horiz-adv-x="1255" 
d="M610 799v635h150l137 -250l139 250h144v-635h-133v415l-148 -268h-8l-146 268v-415h-135zM203 799v508h-156v127h453v-127h-158v-508h-139z" />
    <glyph glyph-name="onethird" unicode="&#x2153;" horiz-adv-x="1492" 
d="M1133 -18q-154 0 -277 104l90 131q89 -78 184 -78q46 0 77.5 26t31.5 68q0 47 -38.5 71t-108.5 24h-70l-21 110l187 183h-285v153h498v-131l-203 -190q96 -10 155.5 -64t59.5 -149q0 -116 -76 -187t-204 -71zM424 659h-174v601l-139 -56l-37 150l221 90h129v-785zM178 0
l457 752l397 682h158l-457 -752l-397 -682h-158z" />
    <glyph glyph-name="twothirds" unicode="&#x2154;" horiz-adv-x="1626" 
d="M1272 -18q-154 0 -277 104l90 131q89 -78 185 -78q45 0 76.5 26t31.5 68q0 47 -38.5 71t-108.5 24h-70l-20 110l186 183h-285v153h498v-131l-203 -190q96 -10 155.5 -64t59.5 -149q0 -116 -76 -187t-204 -71zM78 659v146l239 227q67 64 92 98t25 74q0 39 -27.5 62.5
t-68.5 23.5q-39 0 -76 -23t-82 -71l-106 111q63 74 126 109.5t152 35.5q117 0 187.5 -62.5t70.5 -166.5q0 -70 -30 -125.5t-107 -126.5l-170 -158h309v-154h-534zM307 0l457 752l397 682h158l-457 -752l-397 -682h-158z" />
    <glyph glyph-name="onefifth" unicode="&#x2155;" horiz-adv-x="1492" 
d="M1122 -18q-141 0 -274 100l92 133q97 -74 182 -74q55 0 87 28.5t32 78.5q0 47 -32 73.5t-89 26.5t-123 -24l-104 59l33 391h450v-156h-311l-12 -137q47 13 106 13q112 0 184 -61t72 -177q0 -127 -80 -200.5t-213 -73.5zM424 659h-174v601l-139 -56l-37 150l221 90h129
v-785zM182 0l457 752l397 682h158l-457 -752l-397 -682h-158z" />
    <glyph glyph-name="twofifths" unicode="&#x2156;" horiz-adv-x="1626" 
d="M1266 -18q-142 0 -275 100l92 133q97 -74 183 -74q55 0 86.5 28.5t31.5 78.5q0 47 -31.5 73.5t-88.5 26.5t-123 -24l-105 59l33 391h451v-156h-312l-12 -137q47 13 107 13q112 0 184 -61t72 -177q0 -127 -80 -200.5t-213 -73.5zM326 0l456 752l398 682h157l-456 -752
l-398 -682h-157zM78 659v146l239 227q67 64 92 98t25 74q0 39 -27.5 62.5t-68.5 23.5q-39 0 -76 -23t-82 -71l-106 111q63 74 126 109.5t152 35.5q117 0 187.5 -62.5t70.5 -166.5q0 -70 -30 -125.5t-107 -126.5l-170 -158h309v-154h-534z" />
    <glyph glyph-name="threefifths" unicode="&#x2157;" horiz-adv-x="1626" 
d="M1266 -18q-142 0 -275 100l92 133q97 -74 183 -74q55 0 86.5 28.5t31.5 78.5q0 47 -31.5 73.5t-88.5 26.5t-123 -24l-105 59l33 391h451v-156h-312l-12 -137q47 13 107 13q112 0 184 -61t72 -177q0 -127 -80 -200.5t-213 -73.5zM297 0l457 752l397 682h158l-457 -752
l-397 -682h-158zM340 641q-158 0 -277 104l91 129q92 -77 184 -77q46 0 77 26.5t31 69.5q0 46 -38.5 70t-108.5 24h-70l-20 111l186 180h-284v156h497v-131l-202 -191q97 -11 156 -65t59 -150q0 -116 -76.5 -186t-204.5 -70z" />
    <glyph glyph-name="fourfifths" unicode="&#x2158;" horiz-adv-x="1626" 
d="M557 813v-158h-158v158h-340l-12 160l322 469h188v-490h92v-139h-92zM403 950v303h-4l-206 -303h210zM1266 -18q-142 0 -275 100l92 133q97 -74 183 -74q55 0 86.5 28.5t31.5 78.5q0 47 -31.5 73.5t-88.5 26.5t-123 -24l-105 59l33 391h451v-156h-312l-12 -137
q47 13 107 13q112 0 184 -61t72 -177q0 -127 -80 -200.5t-213 -73.5zM322 0l456 752l398 682h157l-456 -752l-398 -682h-157z" />
    <glyph glyph-name="onesixth" unicode="&#x2159;" horiz-adv-x="1492" 
d="M1141 -18q-118 0 -191 73q-98 95 -98 303v11q0 204 83.5 314t238.5 110q114 0 212 -68l-73 -139q-62 51 -144 51q-61 0 -99 -44.5t-44 -127.5q59 41 148 41q102 0 169.5 -62.5t67.5 -185.5q0 -125 -76 -200.5t-194 -75.5zM195 0l456 752l398 682h157l-456 -752l-398 -682
h-157zM424 659h-174v601l-139 -56l-37 150l221 90h129v-785zM1137 131q50 0 81 32t31 87q0 56 -30 87.5t-82 31.5q-53 0 -83 -30.5t-30 -88.5q0 -54 32 -86.5t81 -32.5z" />
    <glyph glyph-name="fivesixths" unicode="&#x215a;" horiz-adv-x="1626" 
d="M1278 -18q-118 0 -191 73q-98 95 -98 303v11q0 204 83.5 314t238.5 110q115 0 213 -68l-74 -139q-62 51 -143 51q-61 0 -99.5 -44.5t-44.5 -127.5q59 41 148 41q102 0 169.5 -62.5t67.5 -185.5q0 -125 -76 -200.5t-194 -75.5zM334 641q-142 0 -275 100l93 133
q94 -75 182 -75q55 0 87 29t32 79q0 47 -32 74t-89 27q-54 0 -123 -25l-105 57l33 394h451v-156h-312l-12 -137q43 12 107 12q112 0 184 -61t72 -179q0 -125 -80 -198.5t-213 -73.5zM305 0l457 752l397 682h158l-457 -752l-397 -682h-158zM1274 131q50 0 81 32t31 87
q0 56 -30 87.5t-82 31.5t-82.5 -30.5t-30.5 -88.5q0 -54 32 -86.5t81 -32.5z" />
    <glyph glyph-name="oneeighth" unicode="&#x215b;" horiz-adv-x="1492" 
d="M1137 -18q-127 0 -205 63t-78 168q0 132 115 193q-97 60 -97 172q0 93 73 154t192 61q117 0 189.5 -61t72.5 -154q0 -111 -99 -172q117 -67 117 -191q0 -106 -78.5 -169.5t-201.5 -63.5zM1137 659q-47 0 -77 -27.5t-30 -70.5q0 -45 30 -71.5t77 -26.5q44 0 73 26.5
t29 71.5q0 43 -29 70.5t-73 27.5zM1137 332q-53 0 -87 -29t-34 -80q0 -50 33 -79t88 -29q53 0 84.5 29t31.5 79q0 51 -32.5 80t-83.5 29zM424 659h-174v601l-139 -56l-37 150l221 90h129v-785zM182 0l457 752l397 682h158l-457 -752l-397 -682h-158z" />
    <glyph glyph-name="threeeighths" unicode="&#x215c;" horiz-adv-x="1626" 
d="M1280 -18q-127 0 -205 63t-78 168q0 132 115 193q-96 59 -96 172q0 94 73 154.5t191 60.5q117 0 189.5 -61t72.5 -154q0 -112 -98 -172q117 -67 117 -191q0 -106 -79 -169.5t-202 -63.5zM1280 659q-47 0 -76.5 -27.5t-29.5 -70.5q0 -45 29.5 -71.5t76.5 -26.5
q44 0 73 26.5t29 71.5q0 43 -29 70.5t-73 27.5zM1280 332q-53 0 -87 -29t-34 -80q0 -50 33 -79t88 -29q53 0 85 29t32 79q0 51 -33 80t-84 29zM305 0l457 752l397 682h158l-457 -752l-397 -682h-158zM340 641q-158 0 -277 104l91 129q92 -77 184 -77q46 0 77 26.5t31 69.5
q0 46 -38.5 70t-108.5 24h-70l-20 111l186 180h-284v156h497v-131l-202 -191q97 -11 156 -65t59 -150q0 -116 -76.5 -186t-204.5 -70z" />
    <glyph glyph-name="fiveeighths" unicode="&#x215d;" horiz-adv-x="1626" 
d="M1280 -18q-127 0 -205 63t-78 168q0 132 115 193q-96 59 -96 172q0 94 73 154.5t191 60.5q117 0 189.5 -61t72.5 -154q0 -112 -98 -172q117 -67 117 -191q0 -106 -79 -169.5t-202 -63.5zM1280 659q-47 0 -76.5 -27.5t-29.5 -70.5q0 -45 29.5 -71.5t76.5 -26.5
q44 0 73 26.5t29 71.5q0 43 -29 70.5t-73 27.5zM1280 332q-53 0 -87 -29t-34 -80q0 -50 33 -79t88 -29q53 0 85 29t32 79q0 51 -33 80t-84 29zM305 0l457 752l397 682h158l-457 -752l-397 -682h-158zM336 641q-142 0 -275 100l93 133q94 -75 182 -75q55 0 87 29t32 79
q0 47 -32 74t-89 27q-54 0 -123 -25l-105 57l33 394h451v-156h-311l-13 -137q44 12 107 12q112 0 184 -61t72 -179q0 -125 -80 -198.5t-213 -73.5z" />
    <glyph glyph-name="seveneighths" unicode="&#x215e;" horiz-adv-x="1626" 
d="M1262 -18q-127 0 -205 63t-78 168q0 132 115 193q-97 60 -97 172q0 93 73 154t192 61q117 0 189.5 -61t72.5 -154q0 -111 -99 -172q117 -67 117 -191q0 -106 -78.5 -169.5t-201.5 -63.5zM1262 659q-47 0 -77 -27.5t-30 -70.5q0 -45 30 -71.5t77 -26.5q44 0 73 26.5
t29 71.5q0 43 -29 70.5t-73 27.5zM1262 332q-53 0 -87 -29t-34 -80q0 -50 33 -79t88 -29q53 0 84.5 29t31.5 79q0 51 -32.5 80t-83.5 29zM334 655h-189l295 617h-325v162h518v-131zM242 0l456 752l398 682h157l-456 -752l-398 -682h-157z" />
    <glyph glyph-name="minus" unicode="&#x2212;" horiz-adv-x="1153" 
d="M1040 584h-927v274h927v-274z" />
    <glyph glyph-name="Q.alt" horiz-adv-x="1480" 
d="M1094 -195l-179 195q-86 -25 -176 -25q-188 0 -335.5 92t-229.5 257.5t-82 377.5v25q0 212 83 379t231 259.5t335 92.5q188 0 336 -92t230 -258t82 -377v-24q0 -165 -51.5 -304t-145.5 -237l313 -354v-7h-411zM741 250q151 0 245.5 124.5t94.5 334.5v14
q0 210 -95.5 335.5t-246.5 125.5q-153 0 -247.5 -124.5t-94.5 -334.5v-14q0 -209 96.5 -335t247.5 -126z" />
    <glyph glyph-name="a.alt" horiz-adv-x="1200" 
d="M496 -20q-83 0 -157 34.5t-133 100.5t-93.5 173.5t-34.5 243.5v33q0 136 34 244t93 174t133 100.5t158 34.5q100 0 170 -44t127 -118v142h290v-1098h-290v152q-118 -172 -297 -172zM582 233q92 0 153.5 84.5t61.5 221.5v20q0 137 -61 221t-154 84q-92 0 -152.5 -84
t-60.5 -221v-20q0 -137 60.5 -221.5t152.5 -84.5z" />
    <glyph glyph-name="aacute.alt" horiz-adv-x="1200" 
d="M500 1206l213 344l243 -112l-247 -232h-209zM496 -20q-83 0 -157 34.5t-133 100.5t-93.5 173.5t-34.5 243.5v33q0 136 34 244t93 174t133 100.5t158 34.5q100 0 170 -44t127 -118v142h290v-1098h-290v152q-118 -172 -297 -172zM582 233q92 0 153.5 84.5t61.5 221.5v20
q0 137 -61 221t-154 84q-92 0 -152.5 -84t-60.5 -221v-20q0 -137 60.5 -221.5t152.5 -84.5z" />
    <glyph glyph-name="abreve.alt" horiz-adv-x="1200" 
d="M496 -20q-83 0 -157 34.5t-133 100.5t-93.5 173.5t-34.5 243.5v33q0 136 34 244t93 174t133 100.5t158 34.5q100 0 170 -44t127 -118v142h290v-1098h-290v152q-118 -172 -297 -172zM582 233q92 0 153.5 84.5t61.5 221.5v20q0 137 -61 221t-154 84q-92 0 -152.5 -84
t-60.5 -221v-20q0 -137 60.5 -221.5t152.5 -84.5zM614 1198q-144 0 -237 79t-105 222h191q30 -115 151 -115q122 0 152 115h190q-12 -143 -105 -222t-237 -79z" />
    <glyph glyph-name="acircumflex.alt" horiz-adv-x="1200" 
d="M260 1206l223 310h262l224 -310h-215l-142 131l-141 -131h-211zM496 -20q-83 0 -157 34.5t-133 100.5t-93.5 173.5t-34.5 243.5v33q0 136 34 244t93 174t133 100.5t158 34.5q100 0 170 -44t127 -118v142h290v-1098h-290v152q-118 -172 -297 -172zM582 233
q92 0 153.5 84.5t61.5 221.5v20q0 137 -61 221t-154 84q-92 0 -152.5 -84t-60.5 -221v-20q0 -137 60.5 -221.5t152.5 -84.5z" />
    <glyph glyph-name="adieresis.alt" horiz-adv-x="1200" 
d="M670 1208v258h274v-258h-274zM285 1208v258h274v-258h-274zM496 -20q-83 0 -157 34.5t-133 100.5t-93.5 173.5t-34.5 243.5v33q0 136 34 244t93 174t133 100.5t158 34.5q100 0 170 -44t127 -118v142h290v-1098h-290v152q-118 -172 -297 -172zM582 233q92 0 153.5 84.5
t61.5 221.5v20q0 137 -61 221t-154 84q-92 0 -152.5 -84t-60.5 -221v-20q0 -137 60.5 -221.5t152.5 -84.5z" />
    <glyph glyph-name="agrave.alt" horiz-adv-x="1200" 
d="M496 -20q-83 0 -157 34.5t-133 100.5t-93.5 173.5t-34.5 243.5v33q0 136 34 244t93 174t133 100.5t158 34.5q100 0 170 -44t127 -118v142h290v-1098h-290v152q-118 -172 -297 -172zM582 233q92 0 153.5 84.5t61.5 221.5v20q0 137 -61 221t-154 84q-92 0 -152.5 -84
t-60.5 -221v-20q0 -137 60.5 -221.5t152.5 -84.5zM522 1206l-248 232l244 112l213 -344h-209z" />
    <glyph glyph-name="amacron.alt" horiz-adv-x="1200" 
d="M496 -20q-83 0 -157 34.5t-133 100.5t-93.5 173.5t-34.5 243.5v33q0 136 34 244t93 174t133 100.5t158 34.5q100 0 170 -44t127 -118v142h290v-1098h-290v152q-118 -172 -297 -172zM582 233q92 0 153.5 84.5t61.5 221.5v20q0 137 -61 221t-154 84q-92 0 -152.5 -84
t-60.5 -221v-20q0 -137 60.5 -221.5t152.5 -84.5zM287 1214v199h655v-199h-655z" />
    <glyph glyph-name="aogonek.alt" horiz-adv-x="1200" 
d="M1098 -186v-140q-46 -6 -88 -6q-121 0 -186.5 45.5t-65.5 122.5q0 79 69 164h-34v152q-118 -172 -297 -172q-83 0 -157 34.5t-133 100.5t-93.5 173.5t-34.5 243.5v33q0 136 34 244t93 174t133 100.5t158 34.5q100 0 170 -44t127 -118v142h290v-1098h-61q-49 -57 -49 -113
q0 -79 125 -73zM582 233q92 0 153.5 84.5t61.5 221.5v20q0 137 -61 221t-154 84q-92 0 -152.5 -84t-60.5 -221v-20q0 -137 60.5 -221.5t152.5 -84.5z" />
    <glyph glyph-name="aring.alt" horiz-adv-x="1200" 
d="M614 1198q-94 0 -160.5 65t-66.5 158t66.5 158.5t160.5 65.5t161 -64.5t67 -159.5q0 -93 -67 -158t-161 -65zM614 1300q50 0 84.5 35t34.5 86t-35 87t-84 36t-83.5 -36t-34.5 -87t34 -86t84 -35zM496 -20q-83 0 -157 34.5t-133 100.5t-93.5 173.5t-34.5 243.5v33
q0 136 34 244t93 174t133 100.5t158 34.5q100 0 170 -44t127 -118v142h290v-1098h-290v152q-118 -172 -297 -172zM582 233q92 0 153.5 84.5t61.5 221.5v20q0 137 -61 221t-154 84q-92 0 -152.5 -84t-60.5 -221v-20q0 -137 60.5 -221.5t152.5 -84.5z" />
    <glyph glyph-name="aring.alt2" horiz-adv-x="1060" 
d="M385 -20q-140 0 -233 89t-93 244v13q0 175 103.5 262.5t279.5 87.5q117 0 230 -45v33q0 94 -54 143t-153 49q-109 0 -252 -61l-80 227q123 60 219 76q-47 60 -47 135q0 93 66.5 158t160.5 65q95 0 161.5 -64.5t66.5 -158.5q0 -89 -60 -152q89 -31 142 -84
q112 -112 112 -331v-666h-284v119q-107 -139 -285 -139zM481 193q85 -2 140 45t55 122v93q-73 34 -162 34q-81 0 -127.5 -39.5t-46.5 -113.5v-4q0 -66 38 -100.5t103 -36.5zM532 1112q50 0 84.5 35t34.5 86t-35 87t-84 36t-83.5 -36t-34.5 -87t34 -86t84 -35z" />
    <glyph glyph-name="aringacute.alt" horiz-adv-x="1200" 
d="M502 1706l217 279l242 -109l-246 -170h-213zM614 1198q-94 0 -160.5 65t-66.5 158t66.5 158.5t160.5 65.5t161 -64.5t67 -159.5q0 -93 -67 -158t-161 -65zM614 1300q50 0 84.5 35t34.5 86t-35 87t-84 36t-83.5 -36t-34.5 -87t34 -86t84 -35zM496 -20q-83 0 -157 34.5
t-133 100.5t-93.5 173.5t-34.5 243.5v33q0 136 34 244t93 174t133 100.5t158 34.5q100 0 170 -44t127 -118v142h290v-1098h-290v152q-118 -172 -297 -172zM582 233q92 0 153.5 84.5t61.5 221.5v20q0 137 -61 221t-154 84q-92 0 -152.5 -84t-60.5 -221v-20
q0 -137 60.5 -221.5t152.5 -84.5z" />
    <glyph glyph-name="aringacute.alt2" horiz-adv-x="1060" 
d="M418 1522l217 278l242 -108l-246 -170h-213zM385 -20q-140 0 -233 89t-93 244v13q0 175 103.5 262.5t279.5 87.5q117 0 230 -45v33q0 94 -54 143t-153 49q-109 0 -252 -61l-80 227q123 60 219 76q-47 60 -47 135q0 93 66.5 158t160.5 65q95 0 161.5 -64.5t66.5 -158.5
q0 -89 -60 -152q89 -31 142 -84q112 -112 112 -331v-666h-284v119q-107 -139 -285 -139zM481 193q85 -2 140 45t55 122v93q-73 34 -162 34q-81 0 -127.5 -39.5t-46.5 -113.5v-4q0 -66 38 -100.5t103 -36.5zM532 1112q50 0 84.5 35t34.5 86t-35 87t-84 36t-83.5 -36
t-34.5 -87t34 -86t84 -35z" />
    <glyph glyph-name="atilde.alt" horiz-adv-x="1200" 
d="M496 -20q-83 0 -157 34.5t-133 100.5t-93.5 173.5t-34.5 243.5v33q0 136 34 244t93 174t133 100.5t158 34.5q100 0 170 -44t127 -118v142h290v-1098h-290v152q-118 -172 -297 -172zM582 233q92 0 153.5 84.5t61.5 221.5v20q0 137 -61 221t-154 84q-92 0 -152.5 -84
t-60.5 -221v-20q0 -137 60.5 -221.5t152.5 -84.5zM778 1204q-62 0 -168 45q-7 3 -24.5 9.5t-25.5 9.5t-20.5 7t-22 5.5t-17.5 1.5q-38 0 -58.5 -21t-40.5 -73l-155 45q33 136 82.5 200t138.5 64q56 0 168 -43q84 -35 110 -35q38 0 58.5 21.5t40.5 72.5l155 -45
q-33 -136 -82.5 -200t-138.5 -64z" />
    <glyph glyph-name="three.alt" horiz-adv-x="1095" 
d="M532 -25q-282 0 -479 197l174 207q137 -133 299 -133q95 0 149 48t54 130v2q0 84 -67 130t-201 46h-113v252h119q114 0 173.5 48t59.5 128v2q0 72 -51.5 114t-136.5 42q-77 0 -136 -35.5t-120 -97.5l-180 188q96 105 204 160t250 55q203 0 332 -104t129 -275v-2
q0 -235 -200 -334q231 -92 231 -325v-4q0 -193 -133.5 -316t-356.5 -123z" />
    <glyph glyph-name="registered.alt" horiz-adv-x="1513" 
d="M756 -25q-186 0 -338.5 96t-239 263.5t-86.5 370.5v22q0 152 51.5 287.5t140 233t212 154t262.5 56.5q187 0 339 -96t238 -263t86 -370v-22q0 -203 -87 -371t-239.5 -264.5t-338.5 -96.5zM756 57q125 0 233.5 50t185 136.5t120.5 206.5t44 257v24q0 182 -74 329
t-207.5 231.5t-299.5 84.5t-300 -85t-209 -233.5t-75 -330.5v-25q0 -182 74.5 -329t208 -231.5t299.5 -84.5zM487 342v788h289q144 0 223 -79q66 -66 66 -177v-6q0 -171 -145 -233l165 -293h-186l-143 260h-105v-260h-164zM651 743h121q61 0 95 32t34 87v2q0 119 -133 119
h-117v-240z" />
    <glyph glyph-name="R_p" horiz-adv-x="2174" 
d="M127 0v1434h442q225 0 354.5 -120.5t129.5 -344.5v-11q0 -290 -234 -411l268 -547h-313l-227 481h-144v-481h-276zM1223 -309v1407h270v-148q48 76 109.5 122t152.5 46q156 0 258.5 -136.5t102.5 -406.5v-53q0 -138 -29 -244t-79.5 -170t-114.5 -96t-138 -32
q-91 0 -152 43.5t-110 115.5v-448h-270zM1665 223q78 0 126 81.5t48 221.5v45q0 140 -48 221.5t-126 81.5q-77 0 -126.5 -82t-49.5 -221v-45q0 -138 49.5 -220.5t126.5 -82.5zM403 729h156q98 0 156.5 58.5t58.5 164.5v4q0 114 -59 168t-160 54h-152v-449z" />
    <glyph glyph-name="onehalf.alt" horiz-adv-x="1626" 
d="M637 659h-524v148h188v455l-166 -64l-37 150l248 96h125v-637h166v-148zM1008 0v147l239 228q67 64 92 98t25 72q0 40 -27.5 64t-68.5 24q-39 0 -75.5 -23t-82.5 -71l-106 108q63 75 126 110.5t152 35.5q117 0 187.5 -63t70.5 -167q0 -69 -29.5 -124t-107.5 -128
l-170 -157h309v-154h-534zM340 0l457 752l397 682h158l-457 -752l-397 -682h-158z" />
    <glyph glyph-name="onethird.alt" horiz-adv-x="1626" 
d="M637 659h-524v148h188v455l-166 -64l-37 150l248 96h125v-637h166v-148zM1266 -18q-154 0 -277 104l90 131q89 -78 185 -78q45 0 76.5 26t31.5 68q0 47 -38.5 71t-108.5 24h-70l-20 110l186 183h-285v153h498v-131l-203 -190q96 -10 155.5 -64t59.5 -149q0 -116 -76 -187
t-204 -71zM324 0l456 752l398 682h157l-456 -752l-398 -682h-157z" />
    <glyph glyph-name="onequarter.alt" horiz-adv-x="1626" 
d="M639 659h-524v148h188v455l-166 -64l-37 150l248 96h125v-637h166v-148zM354 0l457 752l397 682h158l-457 -752l-397 -682h-158zM1470 154v-158h-157v158h-340l-12 159l321 469h188v-489h93v-139h-93zM1317 291v305h-4l-207 -305h211z" />
    <glyph glyph-name="onefifth.alt" horiz-adv-x="1626" 
d="M637 659h-524v148h188v455l-166 -64l-37 150l248 96h125v-637h166v-148zM1264 -18q-142 0 -275 100l92 133q97 -74 183 -74q55 0 86.5 28.5t31.5 78.5q0 47 -31.5 73.5t-88.5 26.5t-123 -24l-105 59l33 391h451v-156h-312l-12 -137q47 13 106 13q112 0 184 -61t72 -177
q0 -127 -79.5 -200.5t-212.5 -73.5zM334 0l457 752l397 682h158l-457 -752l-397 -682h-158z" />
    <glyph glyph-name="onesixth.alt" horiz-adv-x="1626" 
d="M1284 -18q-117 0 -190 73q-99 96 -99 303v11q0 204 83.5 314t238.5 110q115 0 213 -68l-74 -139q-62 51 -143 51q-61 0 -99.5 -44.5t-44.5 -127.5q59 41 148 41q102 0 169.5 -62.5t67.5 -185.5q0 -125 -76 -200.5t-194 -75.5zM637 659h-524v148h188v455l-166 -64l-37 150
l248 96h125v-637h166v-148zM336 0l457 752l397 682h158l-457 -752l-397 -682h-158zM1280 131q50 0 81.5 32t31.5 87q0 56 -30.5 87.5t-82.5 31.5t-82.5 -30.5t-30.5 -88.5q0 -54 32 -86.5t81 -32.5z" />
    <glyph glyph-name="oneeighth.alt" horiz-adv-x="1626" 
d="M635 659h-524v148h188v455l-166 -64l-37 150l248 96h125v-637h166v-148zM1282 -18q-127 0 -205 63t-78 168q0 132 115 193q-96 59 -96 172q0 94 73 154.5t191 60.5q117 0 189.5 -61t72.5 -154q0 -112 -98 -172q117 -67 117 -191q0 -106 -79 -169.5t-202 -63.5zM1282 659
q-47 0 -76.5 -27.5t-29.5 -70.5q0 -45 29.5 -71.5t76.5 -26.5q44 0 73 26.5t29 71.5q0 43 -29 70.5t-73 27.5zM1282 332q-53 0 -87 -29t-34 -80q0 -50 33 -79t88 -29q53 0 85 29t32 79q0 51 -33 80t-84 29zM334 0l457 752l397 682h158l-457 -752l-397 -682h-158z" />
    <glyph glyph-name="one.sup_alt" 
d="M645 883h-524v147h188v457l-166 -66l-37 150l248 96h125v-637h166v-147z" />
    <glyph glyph-name="one.inf_alt" 
d="M645 -270h-524v147h188v457l-166 -66l-37 150l248 96h125v-637h166v-147z" />
    <glyph glyph-name="zero.tab" horiz-adv-x="1085" 
d="M541 -23q-224 0 -349.5 186t-125.5 529v45q0 344 126 531.5t351 187.5q222 0 348.5 -186.5t126.5 -528.5v-45q0 -344 -127 -531.5t-350 -187.5zM541 1200q-61 0 -102 -43.5t-65 -147.5t-24 -270v-43q0 -245 49.5 -354t143.5 -109q61 0 102 43.5t64.5 147.5t23.5 270v43
q0 463 -192 463z" />
    <glyph glyph-name="one.tab" horiz-adv-x="1085" 
d="M1022 0h-899v240h328v899l-293 -117l-52 254l431 168h198v-1204h287v-240z" />
    <glyph glyph-name="two.tab" horiz-adv-x="1085" 
d="M991 0h-907v236l410 448q110 122 153 194t43 142q0 79 -48.5 121.5t-121.5 42.5q-74 0 -134.5 -42.5t-129.5 -127.5l-186 180q99 134 211 197t264 63q200 0 320 -110t120 -295v-7q0 -124 -50.5 -219t-168.5 -229l-301 -330h526v-264z" />
    <glyph glyph-name="three.tab" horiz-adv-x="1085" 
d="M506 -25q-268 0 -461 183l166 219q68 -63 136.5 -98t154.5 -35q88 0 144 51t56 137v4q0 93 -72 143t-210 50h-88l-37 182l323 360h-501v263h856v-238l-344 -358q76 -13 139 -41t115 -74.5t81 -117t29 -159.5v-6q0 -206 -134.5 -335.5t-352.5 -129.5z" />
    <glyph glyph-name="three.tab_alt" horiz-adv-x="1085" 
d="M518 -25q-271 0 -465 191l166 207q137 -133 299 -133q93 0 148 50.5t55 135.5q0 84 -72 133t-203 49h-104v242h115q114 0 177.5 51t63.5 133q0 73 -52 117.5t-136 42.5q-83 -1 -144 -36.5t-120 -98.5l-172 190q192 209 456 209q205 0 332 -103.5t127 -283.5
q0 -116 -58 -198.5t-153 -127.5q230 -95 230 -339q0 -192 -135.5 -311.5t-354.5 -119.5z" />
    <glyph glyph-name="four.tab" horiz-adv-x="1085" 
d="M631 0v289h-553l-37 260l522 893h336v-918h150v-235h-150v-289h-268zM635 522v570h-6l-340 -570h346z" />
    <glyph glyph-name="five.tab" horiz-adv-x="1085" 
d="M500 -25q-250 0 -443 168l150 224q158 -127 293 -127q97 0 157 57.5t60 159.5v2q0 95 -59 147.5t-164 52.5t-205 -49l-164 107l45 717h770v-263h-537l-18 -282q86 22 172 22q90 0 168 -25t141.5 -75.5t100.5 -137.5t37 -202v-4q0 -222 -142 -357t-362 -135z" />
    <glyph glyph-name="six.tab" horiz-adv-x="1085" 
d="M614 932q83 0 155 -27t128 -80.5t88.5 -140t32.5 -197.5v-16q0 -219 -130.5 -357.5t-330.5 -138.5q-197 0 -319 119q-82 84 -122 215.5t-40 354.5v18q0 383 136.5 578.5t401.5 195.5q201 0 353 -113l-125 -235q-121 86 -232 86q-64 0 -113 -29.5t-78 -80.5t-44.5 -110.5
t-18.5 -127.5q116 86 258 86zM547 225q90 0 142 63.5t52 168.5v4q0 108 -51 170.5t-143 62.5q-90 0 -141.5 -62.5t-51.5 -170.5v-4q0 -105 52 -168.5t141 -63.5z" />
    <glyph glyph-name="seven.tab" horiz-adv-x="1085" 
d="M680 1163h-576v271h895v-224l-520 -1210h-319z" />
    <glyph glyph-name="eight.tab" horiz-adv-x="1085" 
d="M543 -20q-207 0 -338 113.5t-131 299.5v8q0 238 200 344q-170 105 -170 312v6q0 168 122.5 279.5t316.5 111.5q193 0 314.5 -111.5t121.5 -279.5v-6q0 -207 -170 -312q97 -55 149 -135.5t52 -203.5v-9q0 -192 -130 -304.5t-337 -112.5zM543 215q89 0 139.5 53.5
t50.5 147.5v6q0 93 -53 144.5t-137 51.5q-86 0 -139.5 -51.5t-53.5 -144.5v-6q0 -94 51 -147.5t142 -53.5zM543 846q74 0 120 51t46 135v6q0 83 -46 133t-120 50q-75 0 -121.5 -50t-46.5 -133v-6q0 -83 46.5 -134.5t121.5 -51.5z" />
    <glyph glyph-name="nine.tab" horiz-adv-x="1085" 
d="M469 487q-82 0 -153.5 28t-127.5 82t-88 141.5t-32 199.5v18q0 223 129.5 362.5t330.5 139.5q196 0 320 -121q80 -80 120 -212t40 -355v-18q0 -383 -136 -579t-401 -196q-211 0 -373 121l125 236q135 -94 250 -94q63 0 111 28t77 76t44.5 104t19.5 121q-115 -82 -256 -82
zM537 1208q-89 0 -141 -65t-52 -174v-2q0 -113 51 -177.5t142 -64.5t142.5 64.5t51.5 177.5v2q0 109 -52.5 174t-141.5 65z" />
    <glyph glyph-name="period.tab" horiz-adv-x="542" 
d="M115 0v328h313v-328h-313z" />
    <glyph glyph-name="comma.tab" horiz-adv-x="542" 
d="M76 -330l-25 121q100 13 147.5 69t39.5 140h-123v328h313v-277q0 -365 -352 -381z" />
    <glyph glyph-name="colon.tab" horiz-adv-x="542" 
d="M117 776v322h307v-322h-307zM117 0v322h307v-322h-307z" />
    <glyph glyph-name="semicolon.tab" horiz-adv-x="542" 
d="M117 776v322h307v-322h-307zM76 -330l-25 121q100 13 147.5 69t39.5 140h-121v322h307v-271q0 -188 -87.5 -280.5t-260.5 -100.5z" />
    <glyph glyph-name="twodotleader.tab" horiz-adv-x="1085" 
d="M664 0v313h299v-313h-299zM121 0v313h301v-313h-301z" />
    <glyph glyph-name="periodcentered.tab" horiz-adv-x="542" 
d="M115 471v328h313v-328h-313z" />
    <glyph glyph-name="slash.tab" horiz-adv-x="1085" 
d="M1079 1618l-852 -1864h-245l849 1864h248z" />
    <glyph glyph-name="bar.tab" horiz-adv-x="542" 
d="M156 -246v1864h229v-1864h-229z" />
    <glyph glyph-name="underscore.tab" horiz-adv-x="1085" 
d="M-4 -322v224h1094v-224h-1094z" />
    <glyph glyph-name="dollar.tab" horiz-adv-x="1085" 
d="M750 1593l-21 -172q155 -36 270 -127l-129 -217q-93 66 -178 97l-43 -345q188 -84 273.5 -180t85.5 -239q0 -184 -121 -296t-314 -120l-24 -230h-191l27 248q-194 43 -336 168l135 215q119 -97 238 -137l41 356q-189 83 -270.5 177.5t-81.5 238.5v2q0 180 118 290
t312 118l16 153h193zM739 393q0 42 -24 77.5t-84 70.5l-37 -303q71 9 108 48.5t37 104.5v2zM379 1055q0 -45 22.5 -79t81.5 -69l37 291q-69 -7 -105 -45.5t-36 -97.5z" />
    <glyph glyph-name="sterling.tab" horiz-adv-x="1085" 
d="M223 805v182q0 227 127 354q116 113 305 113q228 0 371 -174l-180 -199q-45 48 -85.5 72.5t-92.5 24.5q-65 0 -101 -39q-49 -49 -49 -154v-180h363v-246h-363v-303h494v-256h-922v190l133 52v317h-129v246h129z" />
    <glyph glyph-name="Euro.tab" horiz-adv-x="1085" 
d="M51 793v194h150q50 224 181 346.5t323 122.5q202 0 348 -149l-152 -209q-94 98 -192 98q-76 0 -133 -52t-87 -157h291v-194h-317v-62v-24v-58h317v-194h-295q28 -110 86 -163.5t134 -53.5q58 0 103.5 26t94.5 78l154 -197q-158 -168 -367 -168q-187 0 -317.5 124.5
t-175.5 353.5h-146v194h127q-1 8 -1 17.5t0.5 21t0.5 17.5v22v66h-127z" />
    <glyph glyph-name="yen.tab" horiz-adv-x="1085" 
d="M133 389h273v141h-273v197h221l-344 707h309l226 -537l227 537h301l-344 -707h223v-197h-270v-141h270v-199h-270v-190h-276v190h-273v199z" />
    <glyph glyph-name="cent.tab" horiz-adv-x="1085" 
d="M815 1446l-27 -186q117 -35 209 -130l-145 -190q-60 57 -102 76l-88 -604q103 13 194 108l141 -180q-147 -161 -360 -172l-27 -180h-198l30 207q-152 51 -244 185t-92 325v22q0 238 136 392t350 163l24 164h199zM373 709q0 -184 110 -258l82 581q-88 -21 -140 -100.5
t-52 -208.5v-14z" />
    <glyph glyph-name="numbersign.tab" horiz-adv-x="1085" 
d="M47 559h156l41 324h-142v241h170l39 310h213l-39 -310h211l37 310h213l-39 -310h129v-241h-157l-41 -324h143v-242h-172l-39 -317h-213l39 317h-209l-39 -317h-213l39 317h-127v242zM451 889l-41 -336h221l41 336h-221z" />
    <glyph glyph-name="paragraph.tab" horiz-adv-x="1085" 
d="M633 0v467h-35q-113 2 -208 33t-167.5 89t-113.5 150.5t-41 210.5q0 231 146.5 357.5t385.5 126.5h330v-1434h-297z" />
    <glyph glyph-name="section.tab" horiz-adv-x="1085" 
d="M537 -18q-221 0 -379 139l129 184q119 -100 243 -100q105 0 105 76q0 37 -43 65.5t-164 69.5q-99 34 -160 61.5t-108.5 63.5t-67.5 79t-20 101v2q0 87 52 148.5t144 89.5q-86 80 -86 194q0 129 101.5 213t265.5 84q221 0 379 -139l-129 -185q-120 101 -244 101
q-104 0 -104 -76q0 -37 42.5 -65.5t163.5 -69.5q99 -34 160 -61.5t109 -63.5t68 -79t20 -101v-2q0 -87 -52.5 -148t-144.5 -90q86 -80 86 -194q0 -129 -101 -213t-265 -84zM416 848q-42 0 -69.5 -23.5t-27.5 -62.5v-2q0 -43 37 -69t129 -58q90 -30 123 -38.5t62 -8.5
q42 0 69 23.5t27 62.5v2q0 43 -37 69t-129 58q-90 30 -122.5 38.5t-61.5 8.5z" />
    <glyph glyph-name="degree.tab" horiz-adv-x="1085" 
d="M541 612q-160 0 -272.5 121t-112.5 295v8q0 174 114 295t275 121q159 0 271 -121t112 -295v-8q0 -174 -113.5 -295t-273.5 -121zM543 784q93 0 149 68.5t56 175.5v8q0 106 -57.5 175t-149.5 69q-91 0 -148 -68.5t-57 -175.5v-8q0 -106 57.5 -175t149.5 -69z" />
    <glyph glyph-name="percent.tab" horiz-adv-x="1085" 
d="M274 1446q109 0 171.5 -97.5t62.5 -271.5v-35q0 -170 -62.5 -269t-171.5 -99q-108 0 -170.5 97.5t-62.5 270.5v35q0 174 62.5 271.5t170.5 97.5zM809 760q109 0 171 -97.5t62 -271.5v-35q0 -174 -62 -271t-171 -97q-108 0 -171 97.5t-63 270.5v35q0 170 63.5 269.5
t170.5 99.5zM801 1434h147l-364 -742l-299 -692h-150l367 741zM809 602q-72 0 -72 -205v-47q0 -205 72 -205t72 205v47q0 205 -72 205zM276 1288q-73 0 -73 -205v-47q0 -205 73 -205q70 0 70 205v47q0 205 -70 205z" />
    <glyph glyph-name="quotedbl.tab" horiz-adv-x="1085" 
d="M614 780l56 654h317v-13l-233 -641h-140zM158 780l55 654h317v-13l-233 -641h-139z" />
    <glyph glyph-name="quotesingle.tab" horiz-adv-x="542" 
d="M115 780l55 654h319v-13l-233 -641h-141z" />
    <glyph glyph-name="plus.tab" horiz-adv-x="1085" 
d="M989 594h-317v-326h-260l2 326h-320v254h320l-2 326h260v-326h317v-254z" />
    <glyph glyph-name="minus.tab" horiz-adv-x="1085" 
d="M989 584h-893v274h893v-274z" />
    <glyph glyph-name="divide.tab" horiz-adv-x="1085" 
d="M397 991v277h291v-277h-291zM989 596h-893v250h893v-250zM397 174v277h291v-277h-291z" />
    <glyph glyph-name="equal.tab" horiz-adv-x="1085" 
d="M965 829h-846v263h846v-263zM965 350h-846v262h846v-262z" />
    <glyph glyph-name="multiply.tab" horiz-adv-x="1085" 
d="M803 266l-262 277l-262 -277l-185 176l275 277l-275 278l187 179l264 -277l262 277l184 -177l-276 -276l276 -279z" />
    <glyph glyph-name="less.tab" horiz-adv-x="1085" 
d="M950 170l-841 420v262l841 420v-287l-565 -262l565 -262v-291z" />
    <glyph glyph-name="greater.tab" horiz-adv-x="1085" 
d="M977 590l-844 -420v287l565 262l-565 262v291l844 -420v-262z" />
    <glyph glyph-name="plusminus.tab" horiz-adv-x="1085" 
d="M989 729l-317 2v-319h-260l2 319l-320 -2v256l320 -2l-2 322h260v-322l317 2v-256zM989 0h-893v244h893v-244z" />
    <glyph glyph-name="space.tab" horiz-adv-x="542" 
 />
    <glyph glyph-name="NUL" horiz-adv-x="0" 
 />
    <glyph glyph-name="hfjslug" horiz-adv-x="1421" 
d="M1319 -410h-426l-16 29h-334l-17 -29h-424v621q28 0 47 18.5t19 46.5q0 27 -19.5 46.5t-46.5 19.5v1135h205l62 161h684l59 -161h207v-1887zM819 1153v-352h31v160h78v28h-78v135h88v29h-119zM377 1153v-352h31v162h96v-162h31v352h-31v-162h-96v162h-31zM942 807
q20 -8 43 -8q64 0 64 73v281h-33v-281q0 -45 -33 -45q-13 0 -41 11v-31zM760 952l-27 6q-9 -39 -16 -61h-2l-33 64q47 44 47 86q0 28 -14 45.5t-41 17.5q-26 0 -42 -18t-16 -45q0 -9 1 -16.5t4.5 -16.5t6 -13.5t9 -16.5t8.5 -17q-47 -38 -47 -97q0 -34 16.5 -54.5
t42.5 -20.5q41 0 60 49h2l24 -49l25 12l-35 65q16 40 27 80zM1071 662v-95h16v25l17 16l31 -41h20l-41 54l37 41h-21l-40 -50h-3v50h-16zM999 598l21 -31h18l-24 35q20 8 20 29q0 13 -10 22t-25 9h-41v-95h17v31h24zM872 565q22 0 36 14.5t14 34.5q0 19 -14.5 34.5
t-35.5 15.5t-35 -15t-14 -35q0 -21 14 -35t35 -14zM758 616l-27 46h-18l37 -60v-35h16v35l37 60h-19zM395 662v-95h70v15h-53v26h47v15h-47v24h53v15h-70zM270 662v-95h17v66l51 -66h14v95h-16v-66l-51 66h-15zM494 662l28 -97h17l22 70h2l23 -70h16l29 97h-17l-20 -72h-2
l-23 72h-14l-23 -72h-2l-20 72h-16zM670 981q-25 48 -25 66q0 17 8.5 27.5t20.5 10.5q26 0 26 -38q0 -31 -30 -66zM700 866q-16 -43 -41 -43q-14 0 -23 14t-9 37q0 40 32 72zM997 612h-22v35h22q21 0 21 -16q0 -8 -6 -13.5t-15 -5.5zM872 580q-14 0 -23 10t-9 24q0 13 9 24
t23 11t23.5 -11t9.5 -24q0 -14 -9 -24t-24 -10z" />
    <glyph glyph-name="i.dot" horiz-adv-x="546" 
d="M121 1214v265h303v-265h-303zM127 0v1098h291v-1098h-291z" />
    <glyph glyph-name="zero.num" 
d="M360 641q-134 0 -215.5 105t-81.5 290v19q0 186 82 291.5t217 105.5q132 0 214.5 -105.5t82.5 -289.5v-19q0 -185 -83.5 -291t-215.5 -106zM360 1290q-120 0 -120 -235v-17q0 -237 122 -237q55 0 88 58t33 179v17q0 121 -34 178t-89 57z" />
    <glyph glyph-name="one.num" horiz-adv-x="587" 
d="M424 659h-174v601l-139 -56l-37 150l221 90h129v-785z" />
    <glyph glyph-name="one.num_alt" 
d="M645 659h-524v148h188v455l-166 -64l-37 150l248 96h125v-637h166v-148z" />
    <glyph glyph-name="two.num" 
d="M92 659v146l240 227q67 64 92 98t25 74q0 39 -28 62.5t-69 23.5q-39 0 -75.5 -22.5t-81.5 -71.5l-107 111q63 74 126.5 109.5t152.5 35.5q117 0 187.5 -62.5t70.5 -166.5q0 -69 -30 -124.5t-108 -127.5l-170 -158h310v-154h-535z" />
    <glyph glyph-name="three.num" 
d="M348 641q-157 0 -276 104l90 129q92 -77 184 -77q46 0 77.5 26.5t31.5 69.5q0 46 -39 70t-109 24h-69l-21 111l186 180h-284v156h497v-131l-202 -191q97 -11 156 -65t59 -150q0 -116 -76.5 -186t-204.5 -70z" />
    <glyph glyph-name="four.num" 
d="M575 813v-158h-157v158h-340l-12 160l321 469h188v-490h93v-139h-93zM422 950v303h-4l-207 -303h211z" />
    <glyph glyph-name="five.num" 
d="M344 641q-141 0 -274 100l92 133q94 -75 182 -75q55 0 87 29t32 79q0 47 -32 74t-89 27q-54 0 -123 -25l-104 57l32 394h451v-156h-311l-13 -137q43 12 107 12q112 0 184 -61t72 -179q0 -125 -80 -198.5t-213 -73.5z" />
    <glyph glyph-name="six.num" 
d="M367 641q-116 0 -191 72q-98 98 -98 303v12q0 204 83 314t238 110q117 0 213 -70l-73 -137q-62 51 -144 51q-61 0 -99 -44.5t-44 -127.5q59 41 147 41q102 0 170 -62t68 -185q0 -125 -76 -201t-194 -76zM362 788q50 0 81.5 32.5t31.5 88.5t-30.5 87.5t-82.5 31.5t-82 -31
t-30 -88q0 -56 31.5 -88.5t80.5 -32.5z" />
    <glyph glyph-name="seven.num" 
d="M326 655h-189l295 617h-326v162h519v-131z" />
    <glyph glyph-name="eight.num" 
d="M362 641q-127 0 -204.5 63t-77.5 168q0 132 115 193q-97 60 -97 172q0 94 73 154.5t191 60.5q117 0 190 -61t73 -154q0 -111 -99 -172q117 -67 117 -193q0 -104 -79 -167.5t-202 -63.5zM362 1317q-47 0 -76.5 -26.5t-29.5 -69.5q0 -45 29.5 -72t76.5 -27q44 0 73.5 27
t29.5 72q0 42 -29 69t-74 27zM362 989q-53 0 -86.5 -28t-33.5 -78q0 -51 32 -80t88 -29q53 0 85 29t32 80q0 50 -33 78t-84 28z" />
    <glyph glyph-name="nine.num" 
d="M358 1452q115 0 189 -74q98 -95 98 -303v-10q0 -204 -83 -314t-238 -110q-124 0 -226 74l72 139q72 -57 158 -57q60 0 98.5 43t42.5 121q-56 -41 -143 -41q-48 0 -90.5 14.5t-76.5 44t-53.5 79t-19.5 113.5q0 126 76.5 203.5t195.5 77.5zM360 1057q52 0 82.5 31.5
t30.5 91.5q0 57 -32 90t-81 33q-50 0 -81 -32.5t-31 -90.5q0 -59 30 -91t82 -32z" />
    <glyph glyph-name="zero.den" 
d="M360 -18q-134 0 -215.5 105t-81.5 290v18q0 186 82.5 292t216.5 106q132 0 214.5 -106t82.5 -290v-18q0 -185 -83.5 -291t-215.5 -106zM360 633q-56 0 -88 -58t-32 -180v-16q0 -236 122 -236q55 0 88 57.5t33 178.5v16q0 121 -34 179.5t-89 58.5z" />
    <glyph glyph-name="one.den" horiz-adv-x="587" 
d="M424 0h-174v602l-139 -55l-37 147l221 90h129v-784z" />
    <glyph glyph-name="one.den_alt" 
d="M645 0h-524v147h188v457l-166 -65l-37 149l248 96h125v-637h166v-147z" />
    <glyph glyph-name="two.den" 
d="M92 0v147l240 228q67 64 92 98t25 72q0 40 -28 64t-69 24q-39 0 -74.5 -23t-82.5 -71l-107 108q63 74 126.5 110t152.5 36q117 0 187.5 -63t70.5 -167q0 -69 -30 -123.5t-108 -128.5l-170 -157h310v-154h-535z" />
    <glyph glyph-name="three.den" 
d="M348 -18q-153 0 -276 104l90 131q89 -78 184 -78q46 0 77.5 26t31.5 68q0 47 -39 71t-109 24h-69l-21 110l186 183h-284v153h497v-131l-202 -190q96 -10 155.5 -64t59.5 -149q0 -116 -76.5 -187t-204.5 -71z" />
    <glyph glyph-name="four.den" 
d="M575 154v-158h-157v158h-340l-12 159l321 469h188v-489h93v-139h-93zM422 291v305h-4l-207 -305h211z" />
    <glyph glyph-name="five.den" 
d="M344 -18q-141 0 -274 100l92 133q97 -74 182 -74q55 0 87 28.5t32 78.5q0 47 -32 73.5t-89 26.5t-123 -24l-104 59l32 391h451v-156h-311l-13 -137q47 13 107 13q112 0 184 -61t72 -177q0 -127 -80 -200.5t-213 -73.5z" />
    <glyph glyph-name="six.den" 
d="M367 -18q-118 0 -191 73q-98 95 -98 303v11q0 204 83 314t238 110q115 0 213 -68l-73 -139q-62 51 -144 51q-61 0 -99 -44.5t-44 -127.5q59 41 147 41q102 0 170 -62.5t68 -185.5q0 -125 -76 -200.5t-194 -75.5zM362 131q50 0 81.5 32t31.5 87q0 56 -30.5 87.5
t-82.5 31.5t-82 -30t-30 -89q0 -54 32 -86.5t80 -32.5z" />
    <glyph glyph-name="seven.den" 
d="M326 -4h-189l295 618h-326v160h519v-131z" />
    <glyph glyph-name="eight.den" 
d="M362 -18q-127 0 -204.5 63t-77.5 168q0 132 115 193q-97 60 -97 172q0 94 73 154.5t191 60.5q117 0 190 -61t73 -154q0 -111 -99 -172q117 -67 117 -191q0 -106 -79 -169.5t-202 -63.5zM362 659q-47 0 -76.5 -27.5t-29.5 -70.5q0 -45 29.5 -71.5t76.5 -26.5
q44 0 73.5 26.5t29.5 71.5q0 43 -29.5 70.5t-73.5 27.5zM362 332q-53 0 -86.5 -29t-33.5 -80q0 -50 32.5 -79t87.5 -29q53 0 85 29t32 79q0 51 -33 80t-84 29z" />
    <glyph glyph-name="nine.den" 
d="M358 793q114 0 189 -72q98 -98 98 -303v-12q0 -204 -83 -314t-238 -110q-126 0 -226 73l72 140q78 -58 158 -58q60 0 98.5 43t42.5 121q-56 -41 -143 -41q-102 0 -171 64t-69 188q0 127 76.5 204t195.5 77zM360 397q52 0 82.5 31.5t30.5 91.5q0 57 -32 91t-81 34
q-50 0 -81 -33.5t-31 -91.5t30 -90.5t82 -32.5z" />
    <glyph glyph-name="caron.alt" horiz-adv-x="1024" 
d="M393 1192l21 389h204v-6l-108 -383h-117z" />
    <glyph glyph-name="acute.cap" horiz-adv-x="1024" 
d="M299 1534l227 303l250 -113l-256 -190h-221z" />
    <glyph glyph-name="hungarumlaut.cap" horiz-adv-x="1024" 
d="M111 1534l225 303l237 -113l-254 -190h-208zM455 1534l227 303l236 -113l-252 -190h-211z" />
    <glyph glyph-name="grave.cap" horiz-adv-x="1024" 
d="M715 1534h-221l-256 190l249 113z" />
    <glyph glyph-name="circumflex.cap" horiz-adv-x="1024" 
d="M150 1534l229 285h266l229 -285h-225l-139 111l-139 -111h-221z" />
    <glyph glyph-name="caron.cap" horiz-adv-x="1024" 
d="M874 1819l-229 -285h-266l-229 285h225l139 -111l139 111h221z" />
    <glyph glyph-name="breve.cap" horiz-adv-x="1024" 
d="M512 1528q-148 0 -241 73.5t-103 208.5h192q31 -96 152 -96t152 96h192q-10 -135 -103 -208.5t-241 -73.5z" />
    <glyph glyph-name="tilde.cap" horiz-adv-x="1024" 
d="M672 1534q-62 0 -176 43q-82 33 -113 33q-37 0 -57.5 -21t-40.5 -71l-158 45q32 135 83.5 199.5t141.5 64.5q74 0 178 -45q87 -31 111 -31q36 0 57 21.5t41 72.5l158 -47q-32 -135 -83.5 -199.5t-141.5 -64.5z" />
    <glyph glyph-name="macron.cap" horiz-adv-x="1024" 
d="M164 1542v203h696v-203h-696z" />
    <glyph glyph-name="dieresis.cap" horiz-adv-x="1024" 
d="M578 1536v248h274v-248h-274zM172 1536v248h274v-248h-274z" />
    <glyph glyph-name="dotaccent.cap" horiz-adv-x="1024" 
d="M371 1536v248h282v-248h-282z" />
    <glyph glyph-name="ring.cap" horiz-adv-x="1024" 
d="M512 1528q-96 0 -163.5 59t-67.5 150t67.5 150t163.5 59t163.5 -59t67.5 -150t-67.5 -150t-163.5 -59zM512 1632q50 0 82.5 30.5t32.5 74.5q0 45 -32 74.5t-83 29.5t-83 -29.5t-32 -74.5q0 -44 32.5 -74.5t82.5 -30.5z" />
    </font>
</defs>
</svg>
