<?xml version="1.0" standalone="no"?>
<!DOCTYPE svg PUBLIC "-//W3C//DTD SVG 1.1//EN" "http://www.w3.org/Graphics/SVG/1.1/DTD/svg11.dtd" >
<svg xmlns="http://www.w3.org/2000/svg" xmlns:xlink="http://www.w3.org/1999/xlink" version="1.1">
<metadata>
Created by FontForge 20170731 at Thu Jan  6 18:16:02 2022
 By Aleksey,,,
(c)2014 Michel Butepage
</metadata>
<defs>
<font id="bosun-03" horiz-adv-x="1239" >
  <font-face 
    font-family="bosun"
    font-weight="400"
    font-stretch="normal"
    units-per-em="2048"
    panose-1="0 0 5 4 0 0 0 0 0 4"
    ascent="1565"
    descent="-483"
    x-height="989"
    cap-height="1464"
    bbox="-152 -483 2130 1939"
    underline-thickness="108"
    underline-position="-329"
    unicode-range="U+0020-20AC"
  />
<missing-glyph 
d="M205 -246h1024v1721h-1024v-1721zM307 -143v1515h819v-1515h-819z" />
    <glyph glyph-name="f_f_i" unicode="ffi" horiz-adv-x="1841" 
d="M1761 987h-620v256q0 3 4 27q7 24 16 33q16 16 56 16q33 0 88 -21q45 -14 92 -41l82 138q-13 9 -105 49q-79 40 -157 37q-62 3 -115 -23q-38 -16 -66 -47q-48 -48 -57 -108q-6 -55 -6 -74v-242h-471v219q0 3 4 27q7 24 16 33q16 16 56 16q35 0 88 -20q45 -14 92 -41
l82 147q-20 13 -105 43q-76 33 -157 33q-62 3 -115 -23q-38 -16 -66 -47q-48 -48 -57 -108q-6 -56 -6 -74v-205h-166v-160h166v-827h168v827h471v-827h168v827h450v-827h170v987z" />
    <glyph glyph-name="f_f_l" unicode="ffl" horiz-adv-x="2119" 
d="M973 827h-471v-825h-170v825h-164v160h164v209q0 16 6 72q6 59 53 106q26 26 68 49q47 23 114 23q80 0 162 -33q79 -28 105 -45l-82 -143q-40 22 -94 39q-53 20 -91 20q-34 3 -53 -16q-12 -9 -18 -60v-221h471v227q0 16 6 72q9 59 57 107q28 28 66 49q45 25 112 22h580
v-1239l4 -28q7 -22 14 -31q16 -16 56 -16q29 2 90 22q22 9 55.5 26t36.5 19l80 -149q-17 -12 -105 -50q-76 -36 -157 -36q-63 3 -113 22q-42 25 -65 45q-49 49 -58 109q-6 62 -6 73v1072h-412q-38 0 -55 -17q-11 -14 -16 -33q0 -7 -1 -15.5t-1 -10.5v-240h280v-160h-280
v-825h-168v825z" />
    <glyph glyph-name="f_i" unicode="fi" horiz-adv-x="1206" 
d="M502 827h450v-827h174l-4 987h-620v256q0 3 4 27q7 24 16 33q16 16 56 16q32 0 88 -21q45 -14 92 -41l82 138q-13 9 -105 49q-79 40 -157 37q-62 3 -115 -23q-38 -16 -66 -47q-48 -48 -57 -108q-6 -55 -6 -74v-242h-166v-160h166v-827h168v827z" />
    <glyph glyph-name="f_l" unicode="fl" horiz-adv-x="1458" 
d="M332 827h-164v160h164v227q0 16 6 72q9 59 57 107q24 24 66 49q48 25 112 22h580v-1239l4 -28q7 -22 14 -31q16 -16 56 -16q30 3 90 22q27 11 92 45l80 -149q-17 -12 -105 -50q-76 -36 -157 -36q-67 3 -113 22q-37 20 -65 45q-49 49 -58 109q-6 61 -6 73v1072h-412
q-38 0 -55 -17q-9 -9 -16 -33q-2 -12 -2 -26v-240h280v-160h-280v-825h-168v825z" />
    <glyph glyph-name="f_f" unicode="ff" horiz-adv-x="1449" 
d="M1425 827v160h-284v256q0 3 4 27q7 24 16 33q16 16 56 16q33 0 88 -21q45 -14 92 -41l82 138q-13 9 -105 49q-79 40 -157 37q-62 3 -115 -23q-38 -16 -66 -47q-48 -48 -57 -108q-6 -55 -6 -74v-242h-471v219q0 3 4 27q7 24 16 33q16 16 56 16q35 0 88 -20q45 -14 92 -41
l102 147q-4 2 -18.5 7t-24.5 9q-30 14 -72 25q-73 22 -86 25q-46 13 -81 10q-62 3 -115 -23q-38 -16 -66 -47q-48 -48 -57 -108q-6 -56 -6 -74v-205h-166v-160h166v-827h168v827h471v-827h168v827h284z" />
    <glyph glyph-name=".notdef" 
d="M205 -246h1024v1721h-1024v-1721zM307 -143v1515h819v-1515h-819z" />
    <glyph glyph-name=".null" horiz-adv-x="0" 
 />
    <glyph glyph-name="nonmarkingreturn" horiz-adv-x="682" 
 />
    <glyph glyph-name="space" unicode=" " horiz-adv-x="600" 
 />
    <glyph glyph-name="exclam" unicode="!" horiz-adv-x="563" 
d="M395 219v-219h168v219h-168zM416 428h127l20 154v882h-170v-882z" />
    <glyph glyph-name="quotedbl" unicode="&#x22;" horiz-adv-x="847" 
d="M434 934h-88l-59 520h211zM782 934h-86l-59 520h211z" />
    <glyph glyph-name="numbersign" unicode="#" horiz-adv-x="1478" 
d="M1468 915h-319l-49 -362h354l-10 -143h-365l-55 -410h-143l55 410h-393l-56 -410h-143l55 410h-301l11 143h309l49 362h-342l8 144h354l50 379h145l-51 -379h393l51 379h146l-54 -379h312zM954 553l50 362h-394l-47 -362h391z" />
    <glyph glyph-name="dollar" unicode="$" horiz-adv-x="1075" 
d="M1073 414q0 -181 -127 -308q-107 -104 -254 -120v-158h-133v160q-137 25 -233 118q-54 54 -93 140l154 65q17 -44 55 -82q80 -77 193 -77t190 77q80 77 80 185t-76 184l-4 2q-28 30 -67.5 45.5t-106.5 30.5q-58 12 -92.5 21.5t-84 35t-85.5 62.5q-57 57 -89 132t-32 154
t32 153.5t89 131.5q93 90 219 111v161h131v-159q132 -18 230 -113q45 -45 86 -129l-154 -68q-20 46 -53 76q-68 68 -168 68q-104 0 -172 -68q-70 -67 -70 -164q0 -99 70 -166l2 -2q19 -20 50 -35t55 -21.5t71 -16.5q59 -12 93.5 -21.5t84.5 -35.5t86 -64q123 -123 123 -305z
" />
    <glyph glyph-name="percent" unicode="%" horiz-adv-x="1970" 
d="M1368 1503l133 -53l-297 -735l-301 -744l-133 54l299 743zM641 696q168 0 260 101q47 54 61.5 127t14.5 172q0 100 -14.5 174.5t-61.5 126.5q-89 100 -260 100t-260 -100q-46 -52 -60 -126.5t-14 -174.5q0 -99 14 -172t60 -127q92 -101 260 -101zM641 1352q106 0 152 -52
q36 -40 36 -189v-15v-11q0 -42 -1 -68.5t-9.5 -66t-25.5 -57.5q-45 -51 -152 -51q-104 0 -149 51q-39 43 -39 203q0 161 39 204q46 52 149 52zM1636 -20q173 0 260 98q47 52 60.5 125.5t13.5 175.5q0 65 -3.5 108t-20.5 99t-50 92q-89 100 -260 100t-260 -100
q-47 -52 -61.5 -126t-14.5 -173q0 -100 14.5 -174.5t61.5 -126.5q87 -98 260 -98zM1636 631q106 0 152 -49q37 -45 37 -203q0 -162 -37 -205q-46 -49 -152 -49q-108 0 -151 49q-39 43 -39 205q0 158 39 203q43 49 151 49z" />
    <glyph glyph-name="ampersand" unicode="&#x26;" horiz-adv-x="1531" 
d="M842 717l223 139q111 105 111 270q0 169 -111 271q-116 110 -283 110q-163 0 -282 -110q-109 -100 -109 -271q0 -132 101 -260l92 -108l-146 -90q-6 -4 -16.5 -11.5t-37 -35t-47 -59.5t-37 -85t-15.5 -112q2 -91 39 -169t108 -133q69 -53 155.5 -70.5t194.5 -17.5
q188 0 351 136l94 -111h223l-193 225l293 271l-247 8l-156 -150zM532 526l162 105l330 -391q-64 -55 -121 -75t-121 -20q-173 0 -245 54q-82 67 -82 166q0 104 77 161zM625 973q-66 83 -66 153q0 92 57 146q65 65 166 65q103 0 168 -65q56 -53 56 -146q0 -89 -52 -141
l-225 -143z" />
    <glyph glyph-name="quotesingle" unicode="'" horiz-adv-x="497" 
d="M434 938h-86l-61 520h211z" />
    <glyph glyph-name="parenleft" unicode="(" horiz-adv-x="647" 
d="M688 1610q-252 -395 -252 -942q0 -549 252 -944l-135 -89q-145 227 -220 490t-75 543q0 564 295 1030z" />
    <glyph glyph-name="parenright" unicode=")" horiz-adv-x="647" 
d="M176 1610q252 -395 252 -942q0 -549 -252 -944l135 -89q145 227 220 490t75 543q0 564 -295 1030z" />
    <glyph glyph-name="asterisk" unicode="*" horiz-adv-x="1013" 
d="M1018 1104l-322 -103l197 -274l-105 -78l-198 273l-201 -273l-106 78l198 274l-321 103l41 125l323 -105v340h131v-340l322 105z" />
    <glyph glyph-name="plus" unicode="+" horiz-adv-x="1265" 
d="M1266 578v-132h-443v-444h-131v444h-442v132h442v438h131v-438h443z" />
    <glyph glyph-name="comma" unicode="," horiz-adv-x="585" 
d="M434 -201l152 420h-170l-129 -420h147z" />
    <glyph glyph-name="hyphen" unicode="-" horiz-adv-x="743" 
d="M193 633v-133h550v133h-550z" />
    <glyph glyph-name="period" unicode="." horiz-adv-x="454" 
d="M287 219v-219h168v219h-168z" />
    <glyph glyph-name="slash" unicode="/" horiz-adv-x="931" 
d="M410 -252l526 1733h-166l-524 -1731z" />
    <glyph glyph-name="zero" unicode="0" horiz-adv-x="1173" 
d="M731 -8q105 0 191 39q94 41 161 147q56 91 73.5 222t17.5 311q0 179 -17.5 310t-73.5 222q-66 104 -161 146q-84 38 -191 38q-106 0 -190 -38q-98 -42 -164 -146q-56 -90 -73 -220.5t-17 -311.5q0 -182 17 -312t73 -221q67 -106 164 -147q86 -39 190 -39zM731 1260
q76 0 124.5 -25.5t84.5 -81.5q23 -37 37.5 -91.5t19.5 -128.5t6 -112t1 -110q0 -73 -1 -111t-6 -113t-19.5 -129.5t-37.5 -91.5q-35 -55 -83.5 -78.5t-125.5 -23.5t-125.5 23.5t-83.5 78.5q-23 37 -37.5 92t-20 128.5t-6.5 114.5t-1 110t1 110t6.5 113t20 127t37.5 92
q36 56 84.5 81.5t124.5 25.5z" />
    <glyph glyph-name="one" unicode="1" horiz-adv-x="972" 
d="M825 0v1417h-235l-344 -229l92 -135l319 213v-1266h168z" />
    <glyph glyph-name="two" unicode="2" horiz-adv-x="1198" 
d="M322 143l608 652h2q72 75 78 174q6 105 -56 186q-59 81 -157 100q-105 19 -191 -41q-62 -40 -96 -120l-158 65q37 90 108 156.5t163 95.5q98 30 197.5 11.5t180.5 -79.5q78 -58 125.5 -146t53.5 -185q5 -94 -27.5 -181.5t-97.5 -152.5l-475 -508h616v-168h-877z" />
    <glyph glyph-name="three" unicode="3" horiz-adv-x="1140" 
d="M815 850q134 -40 220.5 -156.5t86.5 -263.5q0 -182 -124.5 -310t-301.5 -128q-175 0 -300.5 128.5t-125.5 309.5h170q0 -112 75 -190t181 -78q107 0 181.5 78t74.5 190t-74.5 190t-181.5 78h-100v154l309 399h-530v168h743v-168z" />
    <glyph glyph-name="four" unicode="4" horiz-adv-x="1196" 
d="M1067 0v315h154v158h-154v950h-186l-639 -931v-177h653v-315h172zM414 473l481 690v-690h-481z" />
    <glyph glyph-name="five" unicode="5" horiz-adv-x="1218" 
d="M459 727v694h708v-170h-538v-356h157q183 0 311 -132.5t128 -318.5t-128 -318t-311 -132q-181 0 -309.5 132t-128.5 318h168q0 -115 80 -198.5t190 -83.5q112 0 191.5 83t79.5 199q0 117 -79.5 200t-191.5 83h-327z" />
    <glyph glyph-name="six" unicode="6" horiz-adv-x="1124" 
d="M1130 471q0 -62 -8 -121q-21 -142 -106 -237q-107 -119 -297 -119q-227 0 -342 121q-86 90 -86 219v661q0 197 123 320q60 60 140.5 91.5t168.5 29.5q50 -1 108 -12t99 -23.5t86.5 -30.5t58 -24t25.5 -13l-80 -149q-4 4 -45.5 22.5t-117 39.5t-138.5 22q-107 3 -187 -74
q-73 -73 -73 -199v-213q178 68 291 68q169 0 266 -100q47 -47 75 -113t33.5 -103t5.5 -63zM891 227q34 39 50 97.5t15 97.5v39q1 70 -26 123q-49 98 -180 98q-57 0 -143.5 -28t-147.5 -56v-270q0 -56 43 -99q62 -65 217 -65q118 0 172 63z" />
    <glyph glyph-name="seven" unicode="7" horiz-adv-x="1169" 
d="M723 2l473 1249v170h-844v-170h664l-473 -1249h180z" />
    <glyph glyph-name="eight" unicode="8" horiz-adv-x="1202" 
d="M1024 651q96 -87 125.5 -226t-31.5 -255q-31 -56 -86 -95t-116 -55t-129.5 -22.5t-127.5 0.5q-141 12 -242 85.5t-114 205.5q-15 144 47.5 263.5t190.5 184.5q-74 38 -124 82.5t-73 108.5q-24 64 -24 139t24 139q28 76 93.5 129t142.5 75.5t161 21.5q92 -2 173.5 -33
t143 -97t77.5 -157q21 -142 -25 -252q-25 -57 -73 -96t-119 -74q58 -30 106 -72zM494 1077q0 -107 47 -143q27 -20 58 -37.5t78.5 -40.5t63.5 -31q19 10 51 24.5t52 24t45 25.5t39.5 33t25.5 42.5t13 57.5q7 110 -55 169t-175 61q-98 3 -170.5 -44t-72.5 -141zM922 203
q54 31 66 95.5t-11.5 127t-65.5 100.5q-25 22 -55.5 39.5t-80.5 39t-64 28.5q-16 -8 -48.5 -23t-53.5 -25t-45.5 -28t-39.5 -39q-36 -45 -50 -109t5.5 -125t73.5 -87q75 -38 186 -37t183 43z" />
    <glyph glyph-name="nine" unicode="9" horiz-adv-x="1124" 
d="M1040 1317q88 -94 88 -219v-662q0 -195 -124 -319q-61 -59 -141 -91.5t-167 -31.5q-173 2 -377 104l78 150l9 -4q10 -5 27 -12.5t38.5 -16t49 -17.5t55.5 -16.5t60 -12.5t60 -5q115 0 189 74q73 70 73 198v215q-181 -69 -292 -69q-170 0 -267 100q-46 47 -72.5 112.5
t-31 100.5t-4.5 63q0 94 4 123q21 147 106 238q104 119 295 119q229 0 344 -121zM958 834v270q0 8 -2 20t-12.5 36t-28.5 42q-68 68 -219 68q-110 0 -170 -66q-67 -74 -67 -237q0 -64 30 -119q52 -98 177 -98q59 0 144.5 28t147.5 56z" />
    <glyph glyph-name="colon" unicode=":" horiz-adv-x="471" 
d="M303 221v-221h168v221h-168zM303 942v-219h168v219h-168z" />
    <glyph glyph-name="semicolon" unicode=";" horiz-adv-x="602" 
d="M432 942v-221h170v221h-170zM451 -199l151 420h-170l-129 -420h148z" />
    <glyph glyph-name="less" unicode="&#x3c;" horiz-adv-x="1146" 
d="M1147 0v152l-729 399l729 397v152l-893 -494v-112z" />
    <glyph glyph-name="equal" unicode="=" horiz-adv-x="1259" 
d="M250 850v-133h1010v133h-1010zM250 412v-129h1010v129h-1010z" />
    <glyph glyph-name="greater" unicode="&#x3e;" horiz-adv-x="1146" 
d="M254 0v152l729 399l-729 397v152l893 -494v-112z" />
    <glyph glyph-name="question" unicode="?" horiz-adv-x="976" 
d="M465 219v-219h168v219h-168zM635 426v127l209 225q121 124 121 295q0 175 -123 295q-123 123 -295 123q-169 0 -295 -123q-57 -57 -88 -133l155 -66q20 44 54 78q69 72 174 72q104 0 176 -72q74 -74 74 -174q0 -99 -74 -176l-256 -279v-192h168z" />
    <glyph glyph-name="at" unicode="@" horiz-adv-x="1628" 
d="M1411 1276q101 -105 155 -243.5t54 -289.5v-2q0 -234 -141 -338q-88 -61 -213 -61q-41 0 -95.5 13t-83 23.5t-36.5 14.5v35q-82 -51 -189 -51q-113 0 -188 78q-86 92 -86 262q0 172 86 264q74 74 188 74q27 0 58.5 -7t76.5 -22l54 -18v24h129v-553q142 -26 223 31
q88 63 88 231v2q0 126 -44.5 241t-127.5 204q-157 168 -414 168q-252 0 -409 -168q-83 -89 -127.5 -204t-44.5 -241q0 -131 46.5 -257.5t125.5 -211.5q157 -168 409 -168q128 0 260 66l60 -117q-150 -78 -320 -78q-143 0 -276 54q-128 52 -228 155q-96 103 -152 252.5
t-56 304.5q0 151 54 289t154 244q101 104 228 156q130 53 276 53q149 0 279 -53q132 -54 227 -156zM862 508q19 0 39 2.5t48.5 12t49.5 25t36.5 44.5t15.5 67v228q-118 37 -189 37q-17 0 -29 -1.5t-35.5 -12.5t-39 -30.5t-27.5 -61.5t-12 -101t12 -101.5t27.5 -62.5t39 -31
t35.5 -12.5t29 -1.5z" />
    <glyph glyph-name="A" unicode="A" horiz-adv-x="1372" 
d="M1186 0l-117 340h-670l-116 -340h-189l516 1464h252l514 -1464h-190zM735 1341l-282 -837h563z" />
    <glyph glyph-name="B" unicode="B" horiz-adv-x="1181" 
d="M1198 1071q0 -61 -12.5 -114.5t-30 -87t-34.5 -58t-29 -35.5l-13 -10q7 -4 17.5 -11.5t38.5 -37t49.5 -65t39 -97t17.5 -131.5q0 -87 -28 -169t-76 -140q-91 -113 -265 -113h-536v1462h522q159 0 248 -106q43 -52 67.5 -129.5t24.5 -157.5zM858 1294h-352v-454h356
q31 1 56.5 11.5t33.5 17.5t23 22q25 29 40 79t15 101q0 50 -15 99.5t-40 78.5q-40 45 -117 45zM872 684h-366v-514h366q95 0 136 53q29 33 45 88t16 113t-16 113t-45 88q-46 59 -136 59z" />
    <glyph glyph-name="C" unicode="C" horiz-adv-x="1136" 
d="M743 -6q134 0 238 59q128 73 193 234l-154 63q-22 -56 -55.5 -95t-72.5 -59t-75 -28t-74 -8q-93 0 -149.5 24.5t-95.5 83.5q-82 119 -84 463q2 346 84 465q40 60 96.5 85.5t148.5 25.5q38 0 74.5 -8.5t75 -29t72 -60t55.5 -95.5l154 66q-63 158 -193 231q-112 64 -238 64
t-206 -35q-110 -42 -179 -148q-109 -156 -112 -553v-16q3 -391 112 -547q70 -107 179 -149q75 -33 206 -33z" />
    <glyph glyph-name="D" unicode="D" horiz-adv-x="1280" 
d="M778 2h-434v1464l434 -2q140 0 215 -24q123 -38 197 -140q69 -93 108 -268q29 -145 29 -299t-29 -299q-39 -178 -108 -266q-73 -100 -197 -139q-85 -27 -215 -27zM1053 268q47 63 75.5 189.5t28.5 275.5t-28.5 275.5t-75.5 189.5q-43 58 -106 78t-169 20h-264v-1124h264
q108 0 170 19t105 77z" />
    <glyph glyph-name="E" unicode="E" horiz-adv-x="1146" 
d="M344 0h873v164h-703v512h627v164h-627v458h703v166h-873v-1464z" />
    <glyph glyph-name="F" unicode="F" horiz-adv-x="1132" 
d="M344 1464l873 -2v-166h-703v-481h625v-164h-625v-651h-170v1464z" />
    <glyph glyph-name="G" unicode="G" horiz-adv-x="1222" 
d="M788 758h435v-756h-426q-130 0 -215 27q-124 39 -197 139q-76 102 -109 268q-30 153 -30 301q0 146 30 299q33 167 109 269q72 99 197 141q85 27 215 27t215 -27q123 -40 196 -141l-135 -101q-43 58 -106 78.5t-170 20.5q-106 0 -169.5 -20.5t-105.5 -78.5
q-49 -64 -76.5 -189.5t-27.5 -277.5t27.5 -278.5t76.5 -190.5q41 -58 104 -77t171 -19h256v424h-265v162z" />
    <glyph glyph-name="H" unicode="H" horiz-adv-x="1296" 
d="M1126 1464h170v-1462h-170v678h-612v-678h-170v1462h170v-624h612v624z" />
    <glyph glyph-name="I" unicode="I" horiz-adv-x="512" 
d="M344 1464v-1462h168v1462h-168z" />
    <glyph glyph-name="J" unicode="J" horiz-adv-x="765" 
d="M317 -14q152 0 244 98q74 74 96 203q11 58 11 108v1069h-170v-1075q0 -128 -58 -188q-45 -45 -123 -45q-47 0 -135 32l-59 -159q107 -43 194 -43z" />
    <glyph glyph-name="K" unicode="K" horiz-adv-x="1288" 
d="M1202 0l-411 662l-277 -416v-246h-170v1464h170v-909l600 909h205l-424 -643l510 -821h-203z" />
    <glyph glyph-name="L" unicode="L" horiz-adv-x="1054" 
d="M514 164v1300h-170v-1464h832v164h-662z" />
    <glyph glyph-name="M" unicode="M" horiz-adv-x="1605" 
d="M1606 1464h-256l-375 -1126l-377 1126h-254v-1464h168v1202l330 -995h264l332 997v-1204h168v1464z" />
    <glyph glyph-name="N" unicode="N" horiz-adv-x="1390" 
d="M1137 0h254v1464h-170v-1261l-619 1261h-258v-1464h168v1268z" />
    <glyph glyph-name="O" unicode="O" horiz-adv-x="1396" 
d="M821 -25q135 0 240 48q124 59 201 165q82 110 110 256q25 117 25 291q0 172 -25 289q-29 148 -110 258q-80 109 -201 164q-107 49 -240 49q-132 0 -239 -49q-121 -55 -201 -164q-77 -103 -111 -258q-24 -112 -24 -289q0 -179 24 -291q34 -152 111 -256q77 -106 201 -165
q105 -48 239 -48zM821 1323q95 0 174.5 -37t128.5 -104q97 -132 97 -447q0 -316 -97 -448q-49 -67 -128 -102t-175 -35t-175 35t-128 102q-96 131 -96 448q0 316 96 447q49 67 128.5 104t174.5 37z" />
    <glyph glyph-name="P" unicode="P" horiz-adv-x="1179" 
d="M344 1464h514q174 0 295 -137q117 -133 117 -317t-117 -320q-121 -137 -295 -137h-346v-553h-168v1464zM858 719q100 0 172 86t72 205q0 117 -72.5 203.5t-171.5 86.5h-346v-581h346z" />
    <glyph glyph-name="Q" unicode="Q" horiz-adv-x="1325" 
d="M1253 190q-1 -1 -2 -3t-2 -3l137 -139l-126 -121l-134 146q-46 -32 -71 -43q-109 -50 -238 -50q-128 0 -237 50q-120 54 -199 163q-78 105 -111 254q-24 109 -24 285q0 180 24 289q34 152 111 256q78 108 199 162q111 51 237 51q127 0 238 -51q119 -54 198 -162
q83 -112 111 -256q25 -114 25 -289q0 -171 -25 -285q-27 -141 -111 -254zM817 152q117 0 193 43l-92 98l120 113l95 -97q84 130 84 422q0 313 -99 445q-49 65 -127.5 100t-173.5 35t-173.5 -35t-127.5 -100q-98 -131 -98 -445q0 -311 98 -442q49 -66 128 -101.5t173 -35.5z
" />
    <glyph glyph-name="R" unicode="R" horiz-adv-x="1257" 
d="M344 1464h514q174 0 295 -137q117 -129 117 -317t-117 -320q-56 -62 -125 -96l301 -594h-190l-281 553h-346v-553h-168v1464zM512 1300v-581h346q101 0 172.5 86t71.5 205q0 118 -71.5 204t-172.5 86h-346z" />
    <glyph glyph-name="S" unicode="S" horiz-adv-x="1150" 
d="M1030 731q111 -105 111 -301q0 -194 -121 -315q-125 -125 -330 -125q-116 0 -227 30q-147 41 -270 115l88 148q207 -121 409 -121q132 0 205.5 70.5t73.5 197.5q0 126 -58 176q-65 63 -243 86q-205 29 -306 119q-100 93 -100 272q0 175 109 287q113 113 299 113
q228 0 446 -129l-88 -148q-177 107 -358 107q-112 0 -174 -60.5t-62 -169.5q0 -106 47 -147q53 -53 211 -74q232 -34 338 -131z" />
    <glyph glyph-name="T" unicode="T" horiz-adv-x="1130" 
d="M90 1464h1040v-159h-436v-1305h-168v1305h-436v159z" />
    <glyph glyph-name="U" unicode="U" horiz-adv-x="1388" 
d="M856 -23q263 0 401 150q45 48 74.5 107t39 111t12 82.5t1.5 49.5v987h-167v-1003q0 -142 -80 -228q-97 -104 -281 -104q-171 0 -270 102q-26 26 -44.5 61t-27 62.5t-13 58.5t-5 41t-0.5 19v991h-168v-977q0 -223 135 -362q139 -148 393 -148z" />
    <glyph glyph-name="V" unicode="V" horiz-adv-x="1183" 
d="M770 0l430 1464h-176l-383 -1304l-377 1304h-178l430 -1464h254z" />
    <glyph glyph-name="W" unicode="W" horiz-adv-x="2062" 
d="M967 1114h202l357 -938l358 1290h180l-411 -1466h-244l-340 920l-321 -920h-242l-412 1466h178l361 -1290z" />
    <glyph glyph-name="X" unicode="X" horiz-adv-x="1198" 
d="M1202 0h-196l-347 586l-348 -586h-196l446 748l-428 716h197l329 -557l328 557h197l-426 -716z" />
    <glyph glyph-name="Y" unicode="Y" horiz-adv-x="1075" 
d="M1083 1464l-419 -977v-487h-170v487l-420 977h184l322 -770l319 770h184z" />
    <glyph glyph-name="Z" unicode="Z" horiz-adv-x="1212" 
d="M1212 0v168h-786l780 1130v166h-944v-166h742l-779 -1130v-168h987z" />
    <glyph glyph-name="bracketleft" unicode="[" horiz-adv-x="634" 
d="M723 -330v158h-227v1659h227v158h-395v-1975h395z" />
    <glyph glyph-name="backslash" unicode="\" horiz-adv-x="931" 
d="M764 -252l-526 1733h165l525 -1731z" />
    <glyph glyph-name="bracketright" unicode="]" horiz-adv-x="634" 
d="M152 -330v158h227v1659h-227v158h395v-1975h-395z" />
    <glyph glyph-name="asciicircum" unicode="^" horiz-adv-x="1071" 
d="M928 653h147l-336 688h-161l-332 -688h143l270 572z" />
    <glyph glyph-name="underscore" unicode="_" horiz-adv-x="1011" 
d="M0 -182h1012v129h-1012v-129z" />
    <glyph glyph-name="grave" unicode="`" horiz-adv-x="868" 
d="M872 1202l-278 209l-78 -125l283 -178z" />
    <glyph glyph-name="grave" unicode="&#x1fef;" horiz-adv-x="868" 
d="M872 1202l-278 209l-78 -125l283 -178z" />
    <glyph glyph-name="grave" unicode="&#x300;" horiz-adv-x="868" 
d="M872 1202l-278 209l-78 -125l283 -178z" />
    <glyph glyph-name="a" unicode="a" horiz-adv-x="1062" 
d="M752 1014zM1026 799q2 -13 2.5 -212t-0.5 -392v-193h-168v53l-35 -12q-131 -61 -297 -61q-120 0 -194.5 70t-83.5 190q-6 78 18.5 155t79.5 133t127 66q23 4 70 4q110 0 280 -37l35 -8v80q3 103 -14 143q-21 49 -84 60q-24 4 -39 4q-115 0 -336 -101l-104 131
q26 16 61.5 34t101 45.5t147 45t159.5 17.5q84 0 151 -33q111 -56 123 -182zM860 279v129l-20 4q-106 24 -230 24q-69 0 -121 -8q-33 -7 -57 -57q-30 -61 -24 -119q6 -100 120 -100q39 0 59.5 0.5t57.5 1.5t57.5 4.5t49.5 9t45 15.5t32.5 22.5t23.5 31.5t7 42z" />
    <glyph glyph-name="b" unicode="b" horiz-adv-x="1064" 
d="M1122 682v-375q0 -153 -106 -237q-94 -72 -248 -84q-20 -2 -63 -2q-45 0 -137.5 4t-161.5 8l-70 4v1464h170v-559q170 111 319 111q88 0 155 -45t105 -131q37 -83 37 -158zM825 846q-8 0 -22.5 -1t-55.5 -9.5t-78.5 -23t-83.5 -46t-79 -74.5v-520q304 -50 405 31
q43 32 43 104v371q0 39 -24 96q-35 72 -105 72z" />
    <glyph glyph-name="c" unicode="c" horiz-adv-x="1005" 
d="M645 -16q110 0 197 39q121 57 174 167l-152 74q-53 -110 -219 -110q-74 0 -116.5 14t-71.5 49q-32 38 -50 114t-20 171q2 95 20 170.5t50 113.5q30 36 72.5 51t115.5 15q24 0 49.5 -4t59 -15t63.5 -35.5t47 -60.5l152 76q-55 112 -174 166q-92 41 -197 41q-97 0 -177 -25
t-142 -102q-103 -126 -109 -385v-12q6 -259 109 -385q62 -77 142 -102t177 -25z" />
    <glyph glyph-name="d" unicode="d" horiz-adv-x="1062" 
d="M836 1464h168v-1464h-168v72q-155 -97 -320 -97q-108 0 -184 48q-115 78 -115 253v406q0 73 37 156q38 85 105 130.5t155 45.5q183 0 322 -117v567zM426 164q16 -9 48.5 -15t85 -5t127 29.5t149.5 84.5v406q-29 64 -82 106t-111.5 58t-126.5 16q-69 0 -104 -72
q-6 -14 -11.5 -31.5t-8 -29l-5 -23t-2.5 -12.5v-400q0 -83 41 -112z" />
    <glyph glyph-name="e" unicode="e" horiz-adv-x="1073" 
d="M1073 578v-158h-684q12 -134 72 -197t219 -63q69 0 156 17.5t135 39.5l69 -154q-65 -29 -169 -51t-191 -22q-229 0 -342 116q-60 60 -92 168q-29 102 -29 230q0 239 111 375q53 64 145 104q81 35 184 35q209 0 316 -125q100 -112 100 -315zM657 848q-132 0 -198 -78
q-61 -74 -70 -201h514v9q0 138 -57 204t-189 66z" />
    <glyph glyph-name="f" unicode="f" horiz-adv-x="802" 
d="M750 1260l81 133q-154 86 -258 86q-116 0 -178 -70q-63 -66 -63 -178v-256h-164v-158h164v-817h168v817h278v158h-278v270q0 40 18 58q13 16 53 16q31 0 85.5 -18.5t93.5 -40.5z" />
    <glyph glyph-name="g" unicode="g" horiz-adv-x="1103" 
d="M874 987h168v-987q0 -24 -2.5 -50t-12 -82.5t-38 -115t-71.5 -104.5q-116 -116 -302 -119h-20q-33 0 -71 6t-94 22.5t-114 55.5t-104 96l131 105q28 -35 65.5 -60t71.5 -36t64 -17t47 -6h18q121 0 187 69q77 81 77 232v106q-176 -110 -337 -110q-89 0 -158 43t-109 125
q-16 32 -26 69t-12.5 55.5t-2.5 26.5v391q0 20 4 46t17 69.5t46 86.5t81 71q109 59 268 33q95 -17 229 -74v53zM874 307v443q-147 74 -258 92q-102 15 -155 -15q-27 -16 -43 -48.5t-18.5 -49.5t-2.5 -27v-385q0 -1 2 -12t4.5 -22.5t7.5 -28t11 -29.5q35 -65 115 -65
q116 0 247 84q57 36 90 63z" />
    <glyph glyph-name="h" unicode="h" horiz-adv-x="1142" 
d="M1061 938q92 -83 92 -240v-698h-168v698q0 77 -39 113q-19 17 -48.5 26t-49.5 9h-19q-33 0 -68 -16t-74 -50.5t-54.5 -50t-50.5 -53.5q-70 -79 -76 -199v-477h-170v1464h170v-659q36 41 62.5 68t70.5 64.5t90.5 57t91.5 19.5q157 0 240 -76z" />
    <glyph glyph-name="i" unicode="i" horiz-adv-x="497" 
d="M328 987v-987h170v987h-170zM328 1462v-202h170v202h-170z" />
    <glyph glyph-name="j" unicode="j" horiz-adv-x="638" 
d="M461 -225q0 -112 -64 -181q-62 -71 -178 -71q-66 0 -143 19t-105 34l82 148q88 -31 166 -31q39 0 55 16q19 21 19 60v1222h168v-1216zM293 1464v-202h168v202h-168z" />
    <glyph glyph-name="k" unicode="k" horiz-adv-x="1046" 
d="M963 0l-279 518l-180 -225v-293h-168v1462h168v-895l330 420h215l-256 -328l366 -659h-196z" />
    <glyph glyph-name="l" unicode="l" horiz-adv-x="747" 
d="M344 1462h168v-1245q0 -3 4 -27q8 -24 14 -30q20 -17 56 -17q27 0 88 23q64 26 94 43l82 -148q-13 -9 -105 -49q-81 -37 -159 -37q-67 0 -115 23q-36 20 -63 47q-49 49 -58 107q-6 59 -6 73v1237z" />
    <glyph glyph-name="m" unicode="m" horiz-adv-x="1789" 
d="M1714 922q86 -83 86 -224v-698h-170v698q0 68 -35 103q-19 19 -49.5 30.5t-51.5 12.5l-21 2q-197 0 -277 -156q-43 -84 -43 -168v-522h-170v698q0 68 -35 103q-20 19 -51 30.5t-53 12.5l-21 2q-195 0 -274 -156q-11 -22 -19.5 -47t-13 -45t-7 -36.5t-4 -27.5t-1.5 -12
v-522h-168v969h168v-64q7 7 22.5 19t18.5 14q119 78 278 78q23 0 52 -3t89.5 -26.5t102.5 -64.5q18 -16 43 -58q38 45 84 74q116 78 276 78q23 0 52 -3t89.5 -26.5t102.5 -64.5z" />
    <glyph glyph-name="n" unicode="n" horiz-adv-x="1144" 
d="M1061 938q94 -85 94 -238v-700h-170v700q0 77 -39 113q-18 17 -47.5 26t-49.5 9h-20q-33 0 -68 -16t-74.5 -51.5t-55.5 -51t-51 -53.5q-69 -77 -74 -197v-479h-170v989h170v-180q41 45 64.5 68t70 62t92 58t90.5 19q152 0 238 -78z" />
    <glyph glyph-name="o" unicode="o" horiz-adv-x="1062" 
d="M639 -10q94 0 173 25t140 98q62 77 86.5 189.5t24.5 201.5t-24.5 201.5t-86.5 189.5q-58 72 -136.5 96.5t-176.5 24.5q-96 0 -173.5 -24.5t-135.5 -96.5q-62 -77 -87.5 -190.5t-25.5 -200.5t25.5 -200.5t87.5 -190.5q59 -73 137.5 -98t171.5 -25zM639 858q74 0 115 -12.5
t67 -44.5q30 -37 47 -119t17 -178t-17 -178t-47 -119q-27 -33 -68 -46.5t-114 -13.5q-72 0 -112 13t-68 47q-30 36 -47 118t-17 179q0 96 17 178t47 119q26 32 66 44.5t114 12.5z" />
    <glyph glyph-name="p" unicode="p" horiz-adv-x="1050" 
d="M963 975q80 -48 113.5 -128.5t33.5 -150.5v-383q0 -8 -2.5 -26.5t-12 -56t-24.5 -70.5q-37 -83 -102.5 -127.5t-153.5 -44.5q-64 0 -102 2.5t-97.5 19.5t-111.5 51v-520h-168v1448h168v-74q141 85 217 95q143 23 242 -35zM942 317v379q0 4 -0.5 10t-4.5 24t-11 33.5
t-21.5 34t-34.5 29.5q-74 47 -368 -94v-479q50 -43 138 -71.5t175 -28.5q70 0 103 69q24 49 24 94z" />
    <glyph glyph-name="q" unicode="q" horiz-adv-x="1050" 
d="M365 975q-80 -48 -114 -128.5t-34 -150.5v-383q0 -8 2.5 -26.5t12 -56t24.5 -70.5q37 -83 102.5 -127.5t153.5 -44.5q64 0 102 2.5t97.5 19.5t111.5 51v-520h168v1448h-168v-74q-141 85 -217 95q-142 23 -241 -35zM385 317v379q0 4 0.5 10t4.5 24t11 33.5t21.5 34
t34.5 29.5q74 47 368 -94v-479q-50 -43 -138 -71.5t-175 -28.5q-69 0 -102 69q-25 51 -25 94z" />
    <glyph glyph-name="r" unicode="r" horiz-adv-x="722" 
d="M506 887q34 61 94 90q59 29 119 41q61 12 147 12l-65 -176q-110 0 -174 -45q-58 -41 -88 -109q-25 -59 -31 -143q-2 -51 -2 -147v-410h-170v987h170v-100z" />
    <glyph glyph-name="s" unicode="s" horiz-adv-x="1032" 
d="M627 -8q161 0 252 43q147 67 147 241q0 64 -29 121.5t-82 98.5q-102 79 -251 79q-236 0 -236 132q0 49 32.5 82.5t77.5 47t97 13.5q60 0 139 -20.5t126 -39.5t50 -22l70 154q-16 8 -65 27t-146.5 43t-173.5 24q-164 0 -268.5 -86.5t-104.5 -222.5q0 -89 39 -148
q35 -55 102 -94q101 -55 261 -55q94 0 151 -45q47 -38 47 -89q0 -69 -55 -92q-51 -26 -180 -26q-57 0 -113 10t-94 23.5t-69.5 29t-45.5 24.5t-16 11l-101 -135q4 -4 22.5 -16t60 -32t91 -37.5t121 -30.5t144.5 -13z" />
    <glyph glyph-name="t" unicode="t" horiz-adv-x="843" 
d="M735 211l84 -148q-170 -88 -264 -88q-110 0 -178 72q-64 69 -64 180v600h-166v160h166v246h168v-246h283v-160h-283v-606q5 -43 19 -59q17 -17 55 -17q30 0 84.5 21t95.5 45z" />
    <glyph glyph-name="u" unicode="u" horiz-adv-x="1144" 
d="M961 989h169v-989h-169v84q-147 -111 -320 -111h-20q-135 0 -220 76q-94 85 -94 242v698h170v-698q0 -79 37 -113q37 -35 121 -35q137 0 250 101q49 43 76 84v661z" />
    <glyph glyph-name="v" unicode="v" horiz-adv-x="950" 
d="M643 2l311 989h-182l-244 -831l-243 831h-183l308 -989h233z" />
    <glyph glyph-name="w" unicode="w" horiz-adv-x="1603" 
d="M623 0l241 535l234 -533l225 -2l285 989h-183l-223 -829l-229 520h-221l-230 -520l-221 829h-182l287 -989h217z" />
    <glyph glyph-name="x" unicode="x" horiz-adv-x="966" 
d="M971 0h-205l-223 350l-224 -350h-204l329 504l-317 487h205l211 -332l213 332h202l-317 -487z" />
    <glyph glyph-name="y" unicode="y" horiz-adv-x="1069" 
d="M895 991h178l-481 -1294q-2 -5 -9.5 -19.5t-23.5 -37t-33 -35.5q-33 -26 -94 -56q-64 -28 -151 -28v172q91 0 122 28q15 13 35 33l60 166l-400 1071h181l307 -819z" />
    <glyph glyph-name="z" unicode="z" horiz-adv-x="1052" 
d="M1053 0v158h-607l592 676v157h-751v-157h530l-592 -676v-158h828z" />
    <glyph glyph-name="braceleft" unicode="{" horiz-adv-x="686" 
d="M571 891q0 -80 -31.5 -144.5t-90.5 -78.5q59 -14 90.5 -79t31.5 -147v-508q0 -35 24.5 -60.5t59.5 -25.5h80v-151h-80q-104 0 -179 74t-75 178v493q0 63 -44 107.5t-107 44.5v145q63 0 107 44.5t44 107.5v495q0 103 75 177.5t179 74.5h80v-153h-80q-35 0 -59.5 -24.5
t-24.5 -59.5v-510z" />
    <glyph glyph-name="bar" unicode="|" horiz-adv-x="571" 
d="M442 1571v-1938h129v1938h-129z" />
    <glyph glyph-name="braceright" unicode="}" horiz-adv-x="686" 
d="M315 891q0 -80 32 -144.5t91 -78.5q-59 -14 -91 -79t-32 -147v-508q0 -35 -24.5 -60.5t-59.5 -25.5h-79v-151h79q104 0 179 74t75 178v493q0 63 44.5 107.5t107.5 44.5v145q-63 0 -107.5 44.5t-44.5 107.5v495q0 103 -75 177.5t-179 74.5h-79v-153h79q35 0 59.5 -24.5
t24.5 -59.5v-510z" />
    <glyph glyph-name="asciitilde" unicode="~" horiz-adv-x="1009" 
d="M1012 762q0 -54 -8 -80q-38 -101 -154 -129q-21 -6 -43 -6q-35 0 -78.5 14.5t-69 27.5t-77.5 42q-132 74 -176 63q-51 -12 -60 -45q-3 -8 -4 -17.5t0 -15.5v-6h-127q0 58 8 84q40 100 152 127q21 6 43.5 6.5t46.5 -5t44.5 -12t46.5 -19t44 -22t45 -24.5q43 -24 67 -36
t56.5 -23t50.5 -6q51 13 60 47q6 18 6 35h127z" />
    <glyph glyph-name="exclamdown" unicode="&#xa1;" horiz-adv-x="567" 
d="M565 788v220h-168v-220h168zM545 580h-127l-21 -154v-883h170v883z" />
    <glyph glyph-name="sterling" unicode="&#xa3;" horiz-adv-x="1183" 
d="M621 168h563v-168h-815v168q34 0 59 14.5t36 35t17 40.5t6 34v15v309h-159l30 140h129v374q0 148 103 254q103 103 254 103q148 0 254 -103q41 -44 71 -112l-153 -66q-10 28 -41 56q-59 59 -131 59q-74 0 -133 -59q-56 -56 -56 -132v-374h349l-31 -140h-318v-309
q0 -64 -34 -139z" />
    <glyph glyph-name="yen" unicode="&#xa5;" horiz-adv-x="1181" 
d="M864 549l-57 -141h344l-31 -119h-344v-289h-170v289h-336l31 119h274l-57 141h-252l31 117h174l-274 684h184l309 -772l311 772h185l-275 -684h236l-31 -117h-252z" />
    <glyph glyph-name="dieresis" unicode="&#xa8;" horiz-adv-x="806" 
d="M299 1300v-167h162v167h-162zM647 1300v-167h162v167h-162z" />
    <glyph glyph-name="dieresis" unicode="&#x308;" horiz-adv-x="806" 
d="M299 1300v-167h162v167h-162zM647 1300v-167h162v167h-162z" />
    <glyph glyph-name="guillemotleft" unicode="&#xab;" horiz-adv-x="1058" 
d="M924 152l-283 368l283 369h180l-281 -369l283 -368h-182zM569 152l-282 368l282 369h183l-285 -369l283 -368h-181z" />
    <glyph glyph-name="degree" unicode="&#xb0;" 
 />
    <glyph glyph-name="acute" unicode="&#xb4;" horiz-adv-x="868" 
d="M520 1202l279 209l78 -125l-283 -178z" />
    <glyph glyph-name="acute" unicode="&#x1ffd;" horiz-adv-x="868" 
d="M520 1202l279 209l78 -125l-283 -178z" />
    <glyph glyph-name="acute" unicode="&#x301;" horiz-adv-x="868" 
d="M520 1202l279 209l78 -125l-283 -178z" />
    <glyph glyph-name="periodcentered" unicode="&#xb7;" horiz-adv-x="524" 
d="M430 653q-39 0 -70.5 -29t-31.5 -69t31.5 -69t70.5 -29t66.5 28.5t27.5 69.5t-27.5 69.5t-66.5 28.5z" />
    <glyph glyph-name="guillemotright" unicode="&#xbb;" horiz-adv-x="1058" 
d="M375 152l282 368l-282 369h-180l280 -369l-282 -368h182zM729 152l283 368l-283 369h-182l284 -369l-282 -368h180z" />
    <glyph glyph-name="questiondown" unicode="&#xbf;" horiz-adv-x="976" 
d="M688 788v220h-168v-220h168zM518 582v-127l-209 -226q-121 -124 -121 -295q0 -174 123 -294q123 -123 295 -123q169 0 295 123q57 57 88 133l-155 65q-20 -44 -54 -78q-68 -71 -174 -71q-105 0 -176 71q-74 74 -74 174t74 177l256 278v193h-168z" />
    <glyph glyph-name="Agrave" unicode="&#xc0;" horiz-adv-x="1372" 
d="M1186 0l-117 340h-670l-116 -340h-189l516 1464h252l514 -1464h-190zM735 1341l-282 -837h563zM913 1661l-278 209l-78 -125l283 -178z" />
    <glyph glyph-name="Aacute" unicode="&#xc1;" horiz-adv-x="1372" 
d="M1186 0l-117 340h-670l-116 -340h-189l516 1464h252l514 -1464h-190zM735 1341l-282 -837h563zM557 1661l279 209l77 -125l-282 -178z" />
    <glyph glyph-name="Acircumflex" unicode="&#xc2;" horiz-adv-x="1372" 
d="M1186 0l-117 340h-670l-116 -340h-189l516 1464h252l514 -1464h-190zM735 1341l-282 -837h563zM891 1567h149l-215 342h-182l-215 -342h150l157 243z" />
    <glyph glyph-name="Atilde" unicode="&#xc3;" horiz-adv-x="1372" 
d="M1186 0l-117 340h-670l-116 -340h-189l516 1464h252l514 -1464h-190zM735 1341l-282 -837h563zM850 1567q13 0 37 4q70 17 99.5 69.5t27.5 100.5h-127q-2 -9 -6 -23q-6 -15 -25 -18q-20 -5 -88 37q-113 62 -184 45q-69 -18 -98 -70.5t-27 -101.5h125q2 16 6 22
q9 18 26 21q16 4 91 -35q88 -51 143 -51z" />
    <glyph glyph-name="Adieresis" unicode="&#xc4;" horiz-adv-x="1372" 
d="M1186 0l-117 340h-670l-116 -340h-189l516 1464h252l514 -1464h-190zM735 1341l-282 -837h563zM481 1735v-168h162v168h-162zM829 1735v-168h162v168h-162z" />
    <glyph glyph-name="Aring" unicode="&#xc5;" horiz-adv-x="1372" 
d="M1186 0l-117 340h-670l-116 -340h-189l516 1464h252l514 -1464h-190zM735 1341l-282 -837h563zM733 1567q75 0 130 54.5t55 129.5t-55 129.5t-130 54.5t-128.5 -54.5t-53.5 -129.5t53.5 -129.5t128.5 -54.5zM733 1833q32 0 54 -24.5t22 -57.5t-22 -58.5t-54 -25.5
t-54 25.5t-22 58.5t22 57.5t54 24.5z" />
    <glyph glyph-name="Egrave" unicode="&#xc8;" horiz-adv-x="1146" 
d="M344 0h873v164h-703v512h627v164h-627v458h703v166h-873v-1464zM958 1661l-278 209l-78 -125l283 -178z" />
    <glyph glyph-name="Eacute" unicode="&#xc9;" horiz-adv-x="1146" 
d="M344 0h873v164h-703v512h627v164h-627v458h703v166h-873v-1464zM602 1661l279 209l77 -125l-282 -178z" />
    <glyph glyph-name="Ecircumflex" unicode="&#xca;" horiz-adv-x="1146" 
d="M344 0h873v164h-703v512h627v164h-627v458h703v166h-873v-1464zM936 1567h149l-215 342h-182l-215 -342h150l157 243z" />
    <glyph glyph-name="Edieresis" unicode="&#xcb;" horiz-adv-x="1146" 
d="M344 0h873v164h-703v512h627v164h-627v458h703v166h-873v-1464zM526 1735v-168h162v168h-162zM874 1735v-168h162v168h-162z" />
    <glyph glyph-name="Igrave" unicode="&#xcc;" horiz-adv-x="512" 
d="M250 1464v-1462h168v1462h-168zM512 1661l-279 209l-77 -125l282 -178z" />
    <glyph glyph-name="Iacute" unicode="&#xcd;" horiz-adv-x="512" 
d="M250 1464v-1462h168v1462h-168zM156 1661l278 209l78 -125l-283 -178z" />
    <glyph glyph-name="Icircumflex" unicode="&#xce;" horiz-adv-x="512" 
d="M121 1464v-1462h168v1462h-168zM360 1567h150l-215 342h-182l-215 -342h149l158 243z" />
    <glyph glyph-name="Idieresis" unicode="&#xcf;" horiz-adv-x="512" 
d="M174 1464v-1462h168v1462h-168zM4 1735v-168h162v168h-162zM352 1735v-168h162v168h-162z" />
    <glyph glyph-name="Ntilde" unicode="&#xd1;" horiz-adv-x="1390" 
d="M1137 0h254v1464h-170v-1261l-619 1261h-258v-1464h168v1268zM983 1567q13 0 37 4q70 17 99.5 69.5t27.5 100.5h-127q-2 -9 -6 -23q-6 -15 -25 -18q-20 -5 -88 37q-113 62 -184 45q-69 -18 -98 -70.5t-27 -101.5h125q2 16 6 22q9 18 27 21q16 3 90 -35q88 -51 143 -51z
" />
    <glyph glyph-name="Ograve" unicode="&#xd2;" horiz-adv-x="1396" 
d="M821 -25q135 0 240 48q124 59 201 165q82 110 110 256q25 117 25 291q0 172 -25 289q-29 148 -110 258q-80 109 -201 164q-107 49 -240 49q-132 0 -239 -49q-121 -55 -201 -164q-77 -103 -111 -258q-24 -112 -24 -289q0 -179 24 -291q34 -152 111 -256q77 -106 201 -165
q105 -48 239 -48zM821 1323q95 0 174.5 -37t128.5 -104q97 -132 97 -447q0 -316 -97 -448q-49 -67 -128 -102t-175 -35t-175 35t-128 102q-96 131 -96 448q0 316 96 447q49 67 128.5 104t174.5 37zM999 1692l-278 209l-78 -125l283 -179z" />
    <glyph glyph-name="Oacute" unicode="&#xd3;" horiz-adv-x="1396" 
d="M821 -25q135 0 240 48q124 59 201 165q82 110 110 256q25 117 25 291q0 172 -25 289q-29 148 -110 258q-80 109 -201 164q-107 49 -240 49q-132 0 -239 -49q-121 -55 -201 -164q-77 -103 -111 -258q-24 -112 -24 -289q0 -179 24 -291q34 -152 111 -256q77 -106 201 -165
q105 -48 239 -48zM821 1323q95 0 174.5 -37t128.5 -104q97 -132 97 -447q0 -316 -97 -448q-49 -67 -128 -102t-175 -35t-175 35t-128 102q-96 131 -96 448q0 316 96 447q49 67 128.5 104t174.5 37zM643 1692l279 209l77 -125l-282 -179z" />
    <glyph glyph-name="Ocircumflex" unicode="&#xd4;" horiz-adv-x="1396" 
d="M821 -25q135 0 240 48q124 59 201 165q82 110 110 256q25 117 25 291q0 172 -25 289q-29 148 -110 258q-80 109 -201 164q-107 49 -240 49q-132 0 -239 -49q-121 -55 -201 -164q-77 -103 -111 -258q-24 -112 -24 -289q0 -179 24 -291q34 -152 111 -256q77 -106 201 -165
q105 -48 239 -48zM821 1323q95 0 174.5 -37t128.5 -104q97 -132 97 -447q0 -316 -97 -448q-49 -67 -128 -102t-175 -35t-175 35t-128 102q-96 131 -96 448q0 316 96 447q49 67 128.5 104t174.5 37zM977 1597h149l-215 342h-182l-215 -342h150l157 244z" />
    <glyph glyph-name="Otilde" unicode="&#xd5;" horiz-adv-x="1396" 
d="M821 -25q135 0 240 48q124 59 201 165q82 110 110 256q25 117 25 291q0 172 -25 289q-29 148 -110 258q-80 109 -201 164q-107 49 -240 49q-132 0 -239 -49q-121 -55 -201 -164q-77 -103 -111 -258q-24 -112 -24 -289q0 -179 24 -291q34 -152 111 -256q77 -106 201 -165
q105 -48 239 -48zM821 1323q95 0 174.5 -37t128.5 -104q97 -132 97 -447q0 -316 -97 -448q-49 -67 -128 -102t-175 -35t-175 35t-128 102q-96 131 -96 448q0 316 96 447q49 67 128.5 104t174.5 37zM936 1597q7 0 37 5q70 17 99.5 69.5t27.5 100.5h-127q-2 -9 -6 -23
q-6 -15 -25 -18q-21 -5 -88 36q-113 62 -184 45q-69 -18 -98 -70.5t-27 -101.5h125q2 17 6 23q9 17 26 20q18 4 91 -34q89 -52 143 -52z" />
    <glyph glyph-name="Odieresis" unicode="&#xd6;" horiz-adv-x="1396" 
d="M821 -25q135 0 240 48q124 59 201 165q82 110 110 256q25 117 25 291q0 172 -25 289q-29 148 -110 258q-80 109 -201 164q-107 49 -240 49q-132 0 -239 -49q-121 -55 -201 -164q-77 -103 -111 -258q-24 -112 -24 -289q0 -179 24 -291q34 -152 111 -256q77 -106 201 -165
q105 -48 239 -48zM821 1323q95 0 174.5 -37t128.5 -104q97 -132 97 -447q0 -316 -97 -448q-49 -67 -128 -102t-175 -35t-175 35t-128 102q-96 131 -96 448q0 316 96 447q49 67 128.5 104t174.5 37zM567 1765v-168h162v168h-162zM915 1765v-168h162v168h-162z" />
    <glyph glyph-name="Ugrave" unicode="&#xd9;" horiz-adv-x="1388" 
d="M856 -23q263 0 401 150q45 48 74.5 107t39 111t12 82.5t1.5 49.5v987h-167v-1003q0 -142 -80 -228q-97 -104 -281 -104q-171 0 -270 102q-26 26 -44.5 61t-27 62.5t-13 58.5t-5 41t-0.5 19v991h-168v-977q0 -223 135 -362q139 -148 393 -148zM1034 1661l-278 209
l-78 -125l283 -178z" />
    <glyph glyph-name="Uacute" unicode="&#xda;" horiz-adv-x="1388" 
d="M856 -23q263 0 401 150q45 48 74.5 107t39 111t12 82.5t1.5 49.5v987h-167v-1003q0 -142 -80 -228q-97 -104 -281 -104q-171 0 -270 102q-26 26 -44.5 61t-27 62.5t-13 58.5t-5 41t-0.5 19v991h-168v-977q0 -223 135 -362q139 -148 393 -148zM678 1661l278 209l78 -125
l-282 -178z" />
    <glyph glyph-name="Ucircumflex" unicode="&#xdb;" horiz-adv-x="1388" 
d="M856 -23q263 0 401 150q45 48 74.5 107t39 111t12 82.5t1.5 49.5v987h-167v-1003q0 -142 -80 -228q-97 -104 -281 -104q-171 0 -270 102q-26 26 -44.5 61t-27 62.5t-13 58.5t-5 41t-0.5 19v991h-168v-977q0 -223 135 -362q139 -148 393 -148zM1012 1567h149l-215 342
h-182l-215 -342h149l158 243z" />
    <glyph glyph-name="Udieresis" unicode="&#xdc;" horiz-adv-x="1388" 
d="M856 -23q263 0 401 150q45 48 74.5 107t39 111t12 82.5t1.5 49.5v987h-167v-1003q0 -142 -80 -228q-97 -104 -281 -104q-171 0 -270 102q-26 26 -44.5 61t-27 62.5t-13 58.5t-5 41t-0.5 19v991h-168v-977q0 -223 135 -362q139 -148 393 -148zM602 1735v-168h162v168h-162
zM950 1735v-168h162v168h-162z" />
    <glyph glyph-name="Yacute" unicode="&#xdd;" horiz-adv-x="1075" 
d="M1083 1464l-419 -977v-487h-170v487l-420 977h184l322 -770l319 770h184zM399 1661l279 209l78 -125l-283 -178z" />
    <glyph glyph-name="germandbls" unicode="&#xdf;" horiz-adv-x="1200" 
d="M1159 1153q0 -63 -15.5 -121t-37.5 -96t-43.5 -67.5t-36.5 -42.5l-16 -13q105 -55 161 -131q80 -119 80 -274q0 -68 -10 -117q-27 -133 -121 -215q-99 -80 -239 -80q-69 0 -146 18l39 166q160 -38 238 25q69 57 69 198q0 193 -159 269q-38 18 -82.5 29t-63 12.5
t-26.5 1.5v159q62 0 111 28t76 72t40.5 90.5t13.5 90.5q0 13 -2 33.5t-18 63.5t-43 71q-61 61 -178 61q-121 0 -179 -61q-61 -64 -61 -166l-2 -1157h-168v1153q0 8 0.5 22.5t8.5 56.5t22 79.5t44.5 84t72 79.5t110 56t152.5 23q9 0 23.5 -0.5t57 -7t81 -19.5t86 -42.5
t81 -70.5t57 -109t23.5 -152z" />
    <glyph glyph-name="agrave" unicode="&#xe0;" horiz-adv-x="1062" 
d="M752 1014zM1026 799q2 -13 2.5 -212t-0.5 -392v-193h-168v53l-35 -12q-131 -61 -297 -61q-120 0 -194.5 70t-83.5 190q-6 78 18.5 155t79.5 133t127 66q23 4 70 4q110 0 280 -37l35 -8v80q3 103 -14 143q-21 49 -84 60q-24 4 -39 4q-115 0 -336 -101l-4 -2l-104 131l4 2
q26 16 61.5 34t101 45.5t147 45t159.5 17.5q84 0 151 -33q111 -56 123 -182zM860 279v129l-20 4q-106 24 -230 24q-69 0 -121 -8q-33 -7 -57 -57q-30 -61 -24 -119q6 -100 120 -100q39 0 59.5 0.5t57.5 1.5t57.5 4.5t49.5 9t45 15.5t32.5 22.5t23.5 31.5t7 42zM813 1210
l-278 209l-78 -125l282 -178z" />
    <glyph glyph-name="aacute" unicode="&#xe1;" horiz-adv-x="1062" 
d="M752 1014zM1026 799q2 -13 2.5 -212t-0.5 -392v-193h-168v53l-35 -12q-131 -61 -297 -61q-120 0 -194.5 70t-83.5 190q-6 78 18.5 155t79.5 133t127 66q23 4 70 4q110 0 280 -37l35 -8v80q3 103 -14 143q-21 49 -84 60q-24 4 -39 4q-115 0 -336 -101l-4 -2l-104 131l4 2
q26 16 61.5 34t101 45.5t147 45t159.5 17.5q84 0 151 -33q111 -56 123 -182zM860 279v129l-20 4q-106 24 -230 24q-69 0 -121 -8q-33 -7 -57 -57q-30 -61 -24 -119q6 -100 120 -100q39 0 59.5 0.5t57.5 1.5t57.5 4.5t49.5 9t45 15.5t32.5 22.5t23.5 31.5t7 42zM457 1210
l278 209l78 -125l-283 -178z" />
    <glyph glyph-name="acircumflex" unicode="&#xe2;" horiz-adv-x="1062" 
d="M752 1014zM1026 799q2 -13 2.5 -212t-0.5 -392v-193h-168v53l-35 -12q-131 -61 -297 -61q-120 0 -194.5 70t-83.5 190q-6 78 18.5 155t79.5 133t127 66q23 4 70 4q110 0 280 -37l35 -8v80q3 103 -14 143q-21 49 -84 60q-24 4 -39 4q-115 0 -336 -101l-4 -2l-104 131l4 2
q26 16 61.5 34t101 45.5t147 45t159.5 17.5q84 0 151 -33q111 -56 123 -182zM860 279v129l-20 4q-106 24 -230 24q-69 0 -121 -8q-33 -7 -57 -57q-30 -61 -24 -119q6 -100 120 -100q39 0 59.5 0.5t57.5 1.5t57.5 4.5t49.5 9t45 15.5t32.5 22.5t23.5 31.5t7 42zM791 1116h149
l-215 342h-182l-215 -342h149l158 244z" />
    <glyph glyph-name="atilde" unicode="&#xe3;" horiz-adv-x="1062" 
d="M752 1014zM1026 799q2 -13 2.5 -212t-0.5 -392v-193h-168v53l-35 -12q-131 -61 -297 -61q-120 0 -194.5 70t-83.5 190q-6 78 18.5 155t79.5 133t127 66q23 4 70 4q110 0 280 -37l35 -8v80q3 103 -14 143q-21 49 -84 60q-24 4 -39 4q-115 0 -336 -101l-4 -2l-104 131l4 2
q26 16 61.5 34t101 45.5t147 45t159.5 17.5q84 0 151 -33q111 -56 123 -182zM860 279v129l-20 4q-106 24 -230 24q-69 0 -121 -8q-33 -7 -57 -57q-30 -61 -24 -119q6 -100 120 -100q39 0 59.5 0.5t57.5 1.5t57.5 4.5t49.5 9t45 15.5t32.5 22.5t23.5 31.5t7 42zM750 1116
q12 0 36 4q70 17 99.5 69.5t27.5 100.5h-127q-2 -8 -6 -22q-6 -16 -24 -19q-20 -5 -88 37q-114 62 -185 45q-69 -18 -98 -70.5t-27 -101.5h125q2 17 6 23q8 17 27 20q16 3 90 -35q88 -51 144 -51z" />
    <glyph glyph-name="adieresis" unicode="&#xe4;" horiz-adv-x="1062" 
d="M752 1014zM1026 799q2 -13 2.5 -212t-0.5 -392v-193h-168v53l-35 -12q-131 -61 -297 -61q-120 0 -194.5 70t-83.5 190q-6 78 18.5 155t79.5 133t127 66q23 4 70 4q110 0 280 -37l35 -8v80q3 103 -14 143q-21 49 -84 60q-24 4 -39 4q-115 0 -336 -101l-4 -2l-104 131l4 2
q26 16 61.5 34t101 45.5t147 45t159.5 17.5q84 0 151 -33q111 -56 123 -182zM860 279v129l-20 4q-106 24 -230 24q-69 0 -121 -8q-33 -7 -57 -57q-30 -61 -24 -119q6 -100 120 -100q39 0 59.5 0.5t57.5 1.5t57.5 4.5t49.5 9t45 15.5t32.5 22.5t23.5 31.5t7 42zM381 1284
v-168h162v168h-162zM729 1284v-168h162v168h-162z" />
    <glyph glyph-name="aring" unicode="&#xe5;" horiz-adv-x="1062" 
d="M752 1014zM1026 799q2 -13 2.5 -212t-0.5 -392v-193h-168v53l-35 -12q-131 -61 -297 -61q-120 0 -194.5 70t-83.5 190q-6 78 18.5 155t79.5 133t127 66q23 4 70 4q110 0 280 -37l35 -8v80q3 103 -14 143q-21 49 -84 60q-24 4 -39 4q-115 0 -336 -101l-4 -2l-104 131l4 2
q26 16 61.5 34t101 45.5t147 45t159.5 17.5q84 0 151 -33q111 -56 123 -182zM860 279v129l-20 4q-106 24 -230 24q-69 0 -121 -8q-33 -7 -57 -57q-30 -61 -24 -119q6 -100 120 -100q39 0 59.5 0.5t57.5 1.5t57.5 4.5t49.5 9t45 15.5t32.5 22.5t23.5 31.5t7 42zM633 1116
q75 0 129.5 54.5t54.5 129.5t-54.5 130t-129.5 55t-128.5 -55t-53.5 -130t53.5 -129.5t128.5 -54.5zM633 1382q32 0 54 -24.5t22 -57.5t-22 -58t-54 -25t-54 25t-22 58t22 57.5t54 24.5z" />
    <glyph glyph-name="egrave" unicode="&#xe8;" horiz-adv-x="1073" 
d="M1073 578v-158h-684q12 -134 72 -197t219 -63q69 0 156 17.5t135 39.5l69 -154q-65 -29 -169 -51t-191 -22q-229 0 -342 116q-60 60 -92 168q-29 102 -29 230q0 239 111 375q53 64 145 104q81 35 184 35q209 0 316 -125q100 -112 100 -315zM657 848q-132 0 -198 -78
q-61 -74 -70 -201h514v9q0 138 -57 204t-189 66zM823 1214l-278 209l-78 -125l283 -178z" />
    <glyph glyph-name="eacute" unicode="&#xe9;" horiz-adv-x="1073" 
d="M1073 578v-158h-684q12 -134 72 -197t219 -63q69 0 156 17.5t135 39.5l69 -154q-65 -29 -169 -51t-191 -22q-229 0 -342 116q-60 60 -92 168q-29 102 -29 230q0 239 111 375q53 64 145 104q81 35 184 35q209 0 316 -125q100 -112 100 -315zM657 848q-132 0 -198 -78
q-61 -74 -70 -201h514v9q0 138 -57 204t-189 66zM467 1214l278 209l78 -125l-282 -178z" />
    <glyph glyph-name="ecircumflex" unicode="&#xea;" horiz-adv-x="1073" 
d="M1073 578v-158h-684q12 -134 72 -197t219 -63q69 0 156 17.5t135 39.5l69 -154q-65 -29 -169 -51t-191 -22q-229 0 -342 116q-60 60 -92 168q-29 102 -29 230q0 239 111 375q53 64 145 104q81 35 184 35q209 0 316 -125q100 -112 100 -315zM657 848q-132 0 -198 -78
q-61 -74 -70 -201h514v9q0 138 -57 204t-189 66zM801 1120h149l-215 342h-182l-215 -342h149l158 244z" />
    <glyph glyph-name="edieresis" unicode="&#xeb;" horiz-adv-x="1073" 
d="M1073 578v-158h-684q12 -134 72 -197t219 -63q69 0 156 17.5t135 39.5l69 -154q-65 -29 -169 -51t-191 -22q-229 0 -342 116q-60 60 -92 168q-29 102 -29 230q0 239 111 375q53 64 145 104q81 35 184 35q209 0 316 -125q100 -112 100 -315zM657 848q-132 0 -198 -78
q-61 -74 -70 -201h514v9q0 138 -57 204t-189 66zM391 1288v-168h162v168h-162zM739 1288v-168h162v168h-162z" />
    <glyph glyph-name="ntilde" unicode="&#xf1;" horiz-adv-x="1144" 
d="M1061 938q94 -85 94 -238v-700h-170v700q0 77 -39 113q-18 17 -47.5 26t-49.5 9h-20q-33 0 -68 -16t-74.5 -51.5t-55.5 -51t-51 -53.5q-69 -77 -74 -197v-479h-170v989h170v-180q41 45 64.5 68t70 62t92 58t90.5 19q152 0 238 -78zM860 1122q13 0 37 4q70 17 99.5 69.5
t27.5 100.5h-127q-2 -8 -6 -22q-6 -16 -25 -19q-20 -5 -88 37q-113 62 -184 45q-69 -18 -98 -70.5t-27 -101.5h125q2 17 6 23q8 17 27 20q17 4 90 -34q89 -52 143 -52z" />
    <glyph glyph-name="ograve" unicode="&#xf2;" horiz-adv-x="1062" 
d="M639 -10q94 0 173 25t140 98q62 77 86.5 189.5t24.5 201.5t-24.5 201.5t-86.5 189.5q-58 72 -136.5 96.5t-176.5 24.5q-96 0 -173.5 -24.5t-135.5 -96.5q-62 -77 -87.5 -190.5t-25.5 -200.5t25.5 -200.5t87.5 -190.5q59 -73 137.5 -98t171.5 -25zM639 858q74 0 115 -12.5
t67 -44.5q30 -37 47 -119t17 -178t-17 -178t-47 -119q-27 -33 -68 -46.5t-114 -13.5q-72 0 -112 13t-68 47q-30 36 -47 118t-17 179q0 96 17 178t47 119q26 32 66 44.5t114 12.5zM817 1212l-278 209l-78 -125l282 -178z" />
    <glyph glyph-name="oacute" unicode="&#xf3;" horiz-adv-x="1062" 
d="M639 -10q94 0 173 25t140 98q62 77 86.5 189.5t24.5 201.5t-24.5 201.5t-86.5 189.5q-58 72 -136.5 96.5t-176.5 24.5q-96 0 -173.5 -24.5t-135.5 -96.5q-62 -77 -87.5 -190.5t-25.5 -200.5t25.5 -200.5t87.5 -190.5q59 -73 137.5 -98t171.5 -25zM639 858q74 0 115 -12.5
t67 -44.5q30 -37 47 -119t17 -178t-17 -178t-47 -119q-27 -33 -68 -46.5t-114 -13.5q-72 0 -112 13t-68 47q-30 36 -47 118t-17 179q0 96 17 178t47 119q26 32 66 44.5t114 12.5zM461 1212l278 209l78 -125l-282 -178z" />
    <glyph glyph-name="ocircumflex" unicode="&#xf4;" horiz-adv-x="1062" 
d="M639 -10q94 0 173 25t140 98q62 77 86.5 189.5t24.5 201.5t-24.5 201.5t-86.5 189.5q-58 72 -136.5 96.5t-176.5 24.5q-96 0 -173.5 -24.5t-135.5 -96.5q-62 -77 -87.5 -190.5t-25.5 -200.5t25.5 -200.5t87.5 -190.5q59 -73 137.5 -98t171.5 -25zM639 858q74 0 115 -12.5
t67 -44.5q30 -37 47 -119t17 -178t-17 -178t-47 -119q-27 -33 -68 -46.5t-114 -13.5q-72 0 -112 13t-68 47q-30 36 -47 118t-17 179q0 96 17 178t47 119q26 32 66 44.5t114 12.5zM795 1118h149l-215 342h-182l-215 -342h149l158 244z" />
    <glyph glyph-name="otilde" unicode="&#xf5;" horiz-adv-x="1062" 
d="M639 -10q94 0 173 25t140 98q62 77 86.5 189.5t24.5 201.5t-24.5 201.5t-86.5 189.5q-58 72 -136.5 96.5t-176.5 24.5q-96 0 -173.5 -24.5t-135.5 -96.5q-62 -77 -87.5 -190.5t-25.5 -200.5t25.5 -200.5t87.5 -190.5q59 -73 137.5 -98t171.5 -25zM639 858q74 0 115 -12.5
t67 -44.5q30 -37 47 -119t17 -178t-17 -178t-47 -119q-27 -33 -68 -46.5t-114 -13.5q-72 0 -112 13t-68 47q-30 36 -47 118t-17 179q0 96 17 178t47 119q26 32 66 44.5t114 12.5zM754 1118q13 0 37 4q70 17 99.5 69.5t27.5 100.5h-127q-3 -8 -7 -22q-6 -16 -24 -19
q-20 -5 -88 37q-114 62 -185 45q-69 -18 -98 -70.5t-27 -101.5h125q3 17 7 23q9 17 26 20q16 3 90 -35q88 -51 144 -51z" />
    <glyph glyph-name="odieresis" unicode="&#xf6;" horiz-adv-x="1062" 
d="M639 -10q94 0 173 25t140 98q62 77 86.5 189.5t24.5 201.5t-24.5 201.5t-86.5 189.5q-58 72 -136.5 96.5t-176.5 24.5q-96 0 -173.5 -24.5t-135.5 -96.5q-62 -77 -87.5 -190.5t-25.5 -200.5t25.5 -200.5t87.5 -190.5q59 -73 137.5 -98t171.5 -25zM639 858q74 0 115 -12.5
t67 -44.5q30 -37 47 -119t17 -178t-17 -178t-47 -119q-27 -33 -68 -46.5t-114 -13.5q-72 0 -112 13t-68 47q-30 36 -47 118t-17 179q0 96 17 178t47 119q26 32 66 44.5t114 12.5zM385 1286v-168h162v168h-162zM733 1286v-168h162v168h-162z" />
    <glyph glyph-name="ugrave" unicode="&#xf9;" horiz-adv-x="1144" 
d="M961 989h169v-989h-169v84q-147 -111 -320 -111h-20q-135 0 -220 76q-94 85 -94 242v698h170v-698q0 -79 37 -113q37 -35 121 -35q137 0 250 101q49 43 76 84v661zM897 1186l-279 209l-77 -125l282 -178z" />
    <glyph glyph-name="uacute" unicode="&#xfa;" horiz-adv-x="1144" 
d="M961 989h169v-989h-169v84q-147 -111 -320 -111h-20q-135 0 -220 76q-94 85 -94 242v698h170v-698q0 -79 37 -113q37 -35 121 -35q137 0 250 101q49 43 76 84v661zM541 1186l278 209l78 -125l-283 -178z" />
    <glyph glyph-name="ucircumflex" unicode="&#xfb;" horiz-adv-x="1144" 
d="M961 989h169v-989h-169v84q-147 -111 -320 -111h-20q-135 0 -220 76q-94 85 -94 242v698h170v-698q0 -79 37 -113q37 -35 121 -35q137 0 250 101q49 43 76 84v661zM874 1092h150l-215 342h-182l-215 -342h149l158 243z" />
    <glyph glyph-name="udieresis" unicode="&#xfc;" horiz-adv-x="1144" 
d="M961 989h169v-989h-169v84q-147 -111 -320 -111h-20q-135 0 -220 76q-94 85 -94 242v698h170v-698q0 -79 37 -113q37 -35 121 -35q137 0 250 101q49 43 76 84v661zM465 1260v-168h162v168h-162zM813 1260v-168h162v168h-162z" />
    <glyph glyph-name="yacute" unicode="&#xfd;" horiz-adv-x="1069" 
d="M895 991h178l-481 -1294q-6 -6 -19 -35q-16 -32 -47 -57q-33 -26 -94 -56q-64 -28 -151 -28v172q91 0 122 28q15 13 35 33l60 166l-400 1071h181l307 -819zM408 1188l278 209l78 -125l-283 -178z" />
    <glyph glyph-name="ydieresis" unicode="&#xff;" horiz-adv-x="1069" 
d="M895 991h178l-481 -1294q-6 -6 -19 -35q-16 -32 -47 -57q-33 -26 -94 -56q-64 -28 -151 -28v172q91 0 122 28q15 13 35 33l60 166l-400 1071h181l307 -819zM332 1262v-168h162v168h-162zM680 1262v-168h162v168h-162z" />
    <glyph glyph-name="Abreve" unicode="&#x102;" horiz-adv-x="1372" 
d="M1186 0l-117 340h-670l-116 -340h-189l516 1464h252l514 -1464h-190zM735 1341l-282 -837h563zM735 1567q95 0 161.5 64t66.5 155h-113q0 -41 -34.5 -70.5t-80.5 -29.5q-47 0 -79.5 29.5t-32.5 70.5h-115q0 -91 65.5 -155t161.5 -64z" />
    <glyph glyph-name="abreve" unicode="&#x103;" horiz-adv-x="1062" 
d="M752 1014zM1026 799q2 -13 2.5 -212t-0.5 -392v-193h-168v53l-35 -12q-131 -61 -297 -61q-120 0 -194.5 70t-83.5 190q-6 78 18.5 155t79.5 133t127 66q23 4 70 4q110 0 280 -37l35 -8v80q3 103 -14 143q-21 49 -84 60q-24 4 -39 4q-115 0 -336 -101l-4 -2l-104 131l4 2
q26 16 61.5 34t101 45.5t147 45t159.5 17.5q84 0 151 -33q111 -56 123 -182zM860 279v129l-20 4q-106 24 -230 24q-69 0 -121 -8q-33 -7 -57 -57q-30 -61 -24 -119q6 -100 120 -100q39 0 59.5 0.5t57.5 1.5t57.5 4.5t49.5 9t45 15.5t32.5 22.5t23.5 31.5t7 42zM635 1116
q95 0 161 64t66 155h-112q0 -41 -34.5 -70.5t-80.5 -29.5q-47 0 -80 29.5t-33 70.5h-114q0 -91 65.5 -155t161.5 -64z" />
    <glyph glyph-name="Cacute" unicode="&#x106;" horiz-adv-x="1136" 
d="M743 -6q134 0 238 59q128 73 193 234l-154 63q-22 -56 -55.5 -95t-72.5 -59t-75 -28t-74 -8q-93 0 -149.5 24.5t-95.5 83.5q-82 119 -84 463q2 346 84 465q40 60 96.5 85.5t148.5 25.5q38 0 74.5 -8.5t75 -29t72 -60t55.5 -95.5l154 66q-63 158 -193 231q-112 64 -238 64
t-206 -35q-110 -42 -179 -148q-109 -156 -112 -553v-16q3 -391 112 -547q70 -107 179 -149q75 -33 206 -33zM530 1671l279 209l78 -125l-283 -178z" />
    <glyph glyph-name="cacute" unicode="&#x107;" horiz-adv-x="1005" 
d="M645 -16q110 0 197 39q121 57 174 167l-152 74q-53 -110 -219 -110q-74 0 -116.5 14t-71.5 49q-32 38 -50 114t-20 171q2 95 20 170.5t50 113.5q30 36 72.5 51t115.5 15q24 0 49.5 -4t59 -15t63.5 -35.5t47 -60.5l152 76q-55 112 -174 166q-92 41 -197 41q-97 0 -177 -25
t-142 -102q-103 -126 -109 -385v-12q6 -259 109 -385q62 -77 142 -102t177 -25zM438 1217l279 208l78 -125l-283 -178z" />
    <glyph glyph-name="Ccircumflex" unicode="&#x108;" horiz-adv-x="1136" 
d="M743 -6q134 0 238 59q128 73 193 234l-154 63q-22 -56 -55.5 -95t-72.5 -59t-75 -28t-74 -8q-93 0 -149.5 24.5t-95.5 83.5q-82 119 -84 463q2 346 84 465q40 60 96.5 85.5t148.5 25.5q38 0 74.5 -8.5t75 -29t72 -60t55.5 -95.5l154 66q-63 158 -193 231q-112 64 -238 64
t-206 -35q-110 -42 -179 -148q-109 -156 -112 -553v-16q3 -391 112 -547q70 -107 179 -149q75 -33 206 -33zM864 1577h150l-215 342h-183l-215 -342h150l158 244z" />
    <glyph glyph-name="ccircumflex" unicode="&#x109;" horiz-adv-x="1005" 
d="M645 -16q110 0 197 39q121 57 174 167l-152 74q-53 -110 -219 -110q-74 0 -116.5 14t-71.5 49q-32 38 -50 114t-20 171q2 95 20 170.5t50 113.5q30 36 72.5 51t115.5 15q24 0 49.5 -4t59 -15t63.5 -35.5t47 -60.5l152 76q-55 112 -174 166q-92 41 -197 41q-97 0 -177 -25
t-142 -102q-103 -126 -109 -385v-12q6 -259 109 -385q62 -77 142 -102t177 -25zM772 1122h150l-215 342h-183l-215 -342h150l157 244z" />
    <glyph glyph-name="Ccaron" unicode="&#x10c;" horiz-adv-x="1136" 
d="M743 -6q134 0 238 59q128 73 193 234l-154 63q-22 -56 -55.5 -95t-72.5 -59t-75 -28t-74 -8q-93 0 -149.5 24.5t-95.5 83.5q-82 119 -84 463q2 346 84 465q40 60 96.5 85.5t148.5 25.5q38 0 74.5 -8.5t75 -29t72 -60t55.5 -95.5l154 66q-63 158 -193 231q-112 64 -238 64
t-206 -35q-110 -42 -179 -148q-109 -156 -112 -553v-16q3 -391 112 -547q70 -107 179 -149q75 -33 206 -33zM551 1919h-150l220 -342h176l217 342h-150l-155 -244z" />
    <glyph glyph-name="ccaron" unicode="&#x10d;" horiz-adv-x="1005" 
d="M645 -16q110 0 197 39q121 57 174 167l-152 74q-53 -110 -219 -110q-74 0 -116.5 14t-71.5 49q-32 38 -50 114t-20 171q2 95 20 170.5t50 113.5q30 36 72.5 51t115.5 15q24 0 49.5 -4t59 -15t63.5 -35.5t47 -60.5l152 76q-55 112 -174 166q-92 41 -197 41q-97 0 -177 -25
t-142 -102q-103 -126 -109 -385v-12q6 -259 109 -385q62 -77 142 -102t177 -25zM459 1464h-150l219 -342h177l217 342h-150l-156 -243z" />
    <glyph glyph-name="Dcaron" unicode="&#x10e;" horiz-adv-x="1280" 
d="M778 2h-434v1464l434 -2q140 0 215 -24q123 -38 197 -140q69 -93 108 -268q29 -145 29 -299t-29 -299q-39 -178 -108 -266q-73 -100 -197 -139q-85 -27 -215 -27zM1053 268q47 63 75.5 189.5t28.5 275.5t-28.5 275.5t-75.5 189.5q-43 58 -106 78t-169 20h-264v-1124h264
q108 0 170 19t105 77zM678 1911h-150l220 -342h176l217 342h-150l-155 -244z" />
    <glyph glyph-name="dcaron" unicode="&#x10f;" horiz-adv-x="1062" 
d="M836 1464h168v-1464h-168v72q-155 -97 -320 -97q-108 0 -184 48q-115 78 -115 253v406q0 73 37 156q38 85 105 130.5t155 45.5q183 0 322 -117v567zM426 164q16 -9 48.5 -15t85 -5t127 29.5t149.5 84.5v406q-29 64 -82 106t-111.5 58t-126.5 16q-69 0 -104 -72
q-6 -14 -11.5 -31.5t-8 -29l-5 -23t-2.5 -12.5v-400q0 -83 41 -112zM453 1909h-150l219 -342h176l217 342h-149l-156 -244z" />
    <glyph glyph-name="Ebreve" unicode="&#x114;" horiz-adv-x="1146" 
d="M344 0h873v164h-703v512h627v164h-627v458h703v166h-873v-1464zM780 1567q95 0 161.5 64t66.5 155h-113q0 -41 -34.5 -70.5t-80.5 -29.5q-47 0 -79.5 29.5t-32.5 70.5h-115q0 -91 65.5 -155t161.5 -64z" />
    <glyph glyph-name="ebreve" unicode="&#x115;" horiz-adv-x="1073" 
d="M1073 578v-158h-684q12 -134 72 -197t219 -63q69 0 156 17.5t135 39.5l69 -154q-65 -29 -169 -51t-191 -22q-229 0 -342 116q-60 60 -92 168q-29 102 -29 230q0 239 111 375q53 64 145 104q81 35 184 35q209 0 316 -125q100 -112 100 -315zM657 848q-132 0 -198 -78
q-61 -74 -70 -201h514v9q0 138 -57 204t-189 66zM645 1120q95 0 161 64t66 155h-112q0 -41 -34.5 -70.5t-80.5 -29.5q-47 0 -80 29.5t-33 70.5h-114q0 -91 65.5 -155t161.5 -64z" />
    <glyph glyph-name="Ecaron" unicode="&#x11a;" horiz-adv-x="1146" 
d="M344 0h873v164h-703v512h627v164h-627v458h703v166h-873v-1464zM623 1909h-150l219 -342h176l217 342h-149l-156 -244z" />
    <glyph glyph-name="ecaron" unicode="&#x11b;" horiz-adv-x="1073" 
d="M1073 578v-158h-684q12 -134 72 -197t219 -63q69 0 156 17.5t135 39.5l69 -154q-65 -29 -169 -51t-191 -22q-229 0 -342 116q-60 60 -92 168q-29 102 -29 230q0 239 111 375q53 64 145 104q81 35 184 35q209 0 316 -125q100 -112 100 -315zM657 848q-132 0 -198 -78
q-61 -74 -70 -201h514v9q0 138 -57 204t-189 66zM487 1462h-149l219 -342h176l217 342h-149l-156 -243z" />
    <glyph glyph-name="Gcircumflex" unicode="&#x11c;" horiz-adv-x="1222" 
d="M788 758h435v-756h-426q-130 0 -215 27q-124 39 -197 139q-76 102 -109 268q-30 153 -30 301q0 146 30 299q33 167 109 269q72 99 197 141q85 27 215 27t215 -27q123 -40 196 -141l-135 -101q-43 58 -106 78.5t-170 20.5q-106 0 -169.5 -20.5t-105.5 -78.5
q-49 -64 -76.5 -189.5t-27.5 -277.5t27.5 -278.5t76.5 -190.5q41 -58 104 -77t171 -19h256v424h-265v162zM889 1575h149l-215 342h-182l-215 -342h149l158 244z" />
    <glyph glyph-name="gcircumflex" unicode="&#x11d;" horiz-adv-x="1103" 
d="M874 987h168v-987q0 -24 -2.5 -50t-12 -82.5t-38 -115t-71.5 -104.5q-116 -116 -302 -119h-20q-33 0 -71 6t-94 22.5t-114 55.5t-104 96l131 105q28 -35 65.5 -60t71.5 -36t64 -17t47 -6h18q121 0 187 69q77 81 77 232v106q-176 -110 -337 -110q-89 0 -158 43t-109 125
q-16 32 -26 69t-12.5 55.5t-2.5 26.5v2v389q0 20 4 46t17 69.5t46 86.5t81 71q109 59 268 33q95 -17 229 -74v53zM874 307v443q-147 74 -258 92q-102 15 -155 -15q-27 -16 -43 -48.5t-18.5 -49.5t-2.5 -27v-385q0 -1 2 -12t4.5 -22.5t7.5 -28t11 -29.5q35 -65 115 -65
q116 0 247 84q57 36 90 63zM782 1128h150l-215 342h-182l-216 -342h150l158 244z" />
    <glyph glyph-name="Gbreve" unicode="&#x11e;" horiz-adv-x="1222" 
d="M788 758h435v-756h-426q-130 0 -215 27q-124 39 -197 139q-76 102 -109 268q-30 153 -30 301q0 146 30 299q33 167 109 269q72 99 197 141q85 27 215 27t215 -27q123 -40 196 -141l-135 -101q-43 58 -106 78.5t-170 20.5q-106 0 -169.5 -20.5t-105.5 -78.5
q-49 -64 -76.5 -189.5t-27.5 -277.5t27.5 -278.5t76.5 -190.5q41 -58 104 -77t171 -19h256v424h-265v162zM733 1575q95 0 161.5 64t66.5 155h-113q0 -41 -34.5 -70.5t-80.5 -29.5q-47 0 -79.5 29.5t-32.5 70.5h-115q0 -91 65.5 -155t161.5 -64z" />
    <glyph glyph-name="gbreve" unicode="&#x11f;" horiz-adv-x="1103" 
d="M874 987h168v-987q0 -24 -2.5 -50t-12 -82.5t-38 -115t-71.5 -104.5q-116 -116 -302 -119h-20q-33 0 -71 6t-94 22.5t-114 55.5t-104 96l131 105q28 -35 65.5 -60t71.5 -36t64 -17t47 -6h18q121 0 187 69q77 81 77 232v106q-176 -110 -337 -110q-89 0 -158 43t-109 125
q-16 32 -26 69t-12.5 55.5t-2.5 26.5v2v389q0 20 4 46t17 69.5t46 86.5t81 71q109 59 268 33q95 -17 229 -74v53zM874 307v443q-147 74 -258 92q-102 15 -155 -15q-27 -16 -43 -48.5t-18.5 -49.5t-2.5 -27v-385q0 -1 2 -12t4.5 -22.5t7.5 -28t11 -29.5q35 -65 115 -65
q116 0 247 84q57 36 90 63zM627 1128q95 0 161 64.5t66 155.5h-113q0 -41 -34 -71t-80 -30q-47 0 -80 30t-33 71h-115q0 -91 66 -155.5t162 -64.5z" />
    <glyph glyph-name="Hcircumflex" unicode="&#x124;" horiz-adv-x="1296" 
d="M1126 1464h170v-1462h-170v678h-612v-678h-170v1462h170v-624h612v624zM975 1567h149l-215 342h-182l-215 -342h150l157 243z" />
    <glyph glyph-name="hcircumflex" unicode="&#x125;" horiz-adv-x="1142" 
d="M1061 938q92 -83 92 -240v-698h-168v698q0 77 -39 113q-19 17 -48.5 26t-49.5 9h-19q-33 0 -68 -16t-74 -50.5t-54.5 -50t-50.5 -53.5q-70 -79 -76 -199v-477h-170v1464h170v-659q36 41 62.5 68t70.5 64.5t90.5 57t91.5 19.5q157 0 240 -76zM901 1567h150l-215 342h-183
l-215 -342h150l157 243z" />
    <glyph glyph-name="Itilde" unicode="&#x128;" horiz-adv-x="512" 
d="M150 1464v-1462h167v1462h-167zM348 1567q13 0 37 4q70 17 99.5 69.5t27.5 100.5h-127q-2 -9 -6 -23q-6 -15 -25 -18q-20 -5 -88 37q-113 62 -184 45q-69 -18 -98 -70.5t-27 -101.5h125q2 16 6 22q9 18 27 21q16 3 90 -35q88 -51 143 -51z" />
    <glyph glyph-name="Ibreve" unicode="&#x12c;" horiz-adv-x="512" 
d="M201 1464v-1462h168v1462h-168zM285 1567q95 0 161 64t66 155h-113q0 -41 -34 -70.5t-80 -29.5q-47 0 -80 29.5t-33 70.5h-115q0 -91 66 -155t162 -64z" />
    <glyph glyph-name="Jcircumflex" unicode="&#x134;" horiz-adv-x="765" 
d="M283 -14q151 0 243 98q75 75 97 203q10 53 10 108v1069h-170v-1075q0 -129 -57 -188q-45 -45 -123 -45q-48 0 -136 32l-59 -159q108 -43 195 -43zM516 1567h150l-215 342h-183l-215 -342h150l157 243z" />
    <glyph glyph-name="jcircumflex" unicode="&#x135;" horiz-adv-x="638" 
d="M399 -225q0 -113 -63 -181q-62 -71 -178 -71q-66 0 -143 19t-105 34l82 148q88 -31 166 -31q39 0 55 16q18 20 18 60v1222h168v-1216zM231 1464v-202h168v202h-168zM311 1567h150l-215 342h-183l-215 -342h150l158 243z" />
    <glyph glyph-name="Lacute" unicode="&#x139;" horiz-adv-x="1054" 
d="M514 164v1300h-170v-1464h832v164h-662zM582 1661l278 209l78 -125l-283 -178z" />
    <glyph glyph-name="lacute" unicode="&#x13a;" horiz-adv-x="747" 
d="M344 1462h168v-1245q0 -3 4 -27q8 -24 14 -30q20 -17 56 -17q27 0 88 23q64 26 94 43l82 -148q-13 -9 -105 -49q-81 -37 -159 -37q-67 0 -115 23q-36 20 -63 47q-49 49 -58 107q-6 59 -6 73v1237zM420 1659l278 209l78 -125l-282 -178z" />
    <glyph glyph-name="Lcaron" unicode="&#x13d;" horiz-adv-x="1054" 
d="M514 164v1300h-170v-1464h832v164h-662zM602 1909h-149l219 -342h176l217 342h-150l-155 -244z" />
    <glyph glyph-name="lcaron" unicode="&#x13e;" horiz-adv-x="747" 
d="M291 1462h168v-1245q0 -3 4 -27q8 -24 14 -30q20 -17 55 -17q28 0 89 23q64 26 94 43l82 -148q-13 -9 -105 -49q-81 -37 -160 -37q-66 0 -114 23q-38 21 -64 47q-47 47 -57 107q-6 59 -6 73v1237zM387 1907h-149l219 -342h176l217 342h-150l-155 -244z" />
    <glyph glyph-name="Nacute" unicode="&#x143;" horiz-adv-x="1390" 
d="M1137 0h254v1464h-170v-1261l-619 1261h-258v-1464h168v1268zM690 1661l279 209l78 -125l-283 -178z" />
    <glyph glyph-name="nacute" unicode="&#x144;" horiz-adv-x="1144" 
d="M1061 938q94 -85 94 -238v-700h-170v700q0 77 -39 113q-18 17 -47.5 26t-49.5 9h-20q-33 0 -68 -16t-74.5 -51.5t-55.5 -51t-51 -53.5q-69 -77 -74 -197v-479h-170v989h170v-180q41 45 64.5 68t70 62t92 58t90.5 19q152 0 238 -78zM567 1217l279 208l78 -125l-283 -178z
" />
    <glyph glyph-name="Ncaron" unicode="&#x147;" horiz-adv-x="1390" 
d="M1137 0h254v1464h-170v-1261l-619 1261h-258v-1464h168v1268zM711 1909h-150l219 -342h176l218 342h-150l-156 -244z" />
    <glyph glyph-name="ncaron" unicode="&#x148;" horiz-adv-x="1144" 
d="M1061 938q94 -85 94 -238v-700h-170v700q0 77 -39 113q-18 17 -47.5 26t-49.5 9h-20q-33 0 -68 -16t-74.5 -51.5t-55.5 -51t-51 -53.5q-69 -77 -74 -197v-479h-170v989h170v-180q41 45 64.5 68t70 62t92 58t90.5 19q152 0 238 -78zM588 1464h-150l219 -342h177l217 342
h-150l-156 -243z" />
    <glyph glyph-name="Obreve" unicode="&#x14e;" horiz-adv-x="1396" 
d="M821 -25q135 0 240 48q124 59 201 165q82 110 110 256q25 117 25 291q0 172 -25 289q-29 148 -110 258q-80 109 -201 164q-107 49 -240 49q-132 0 -239 -49q-121 -55 -201 -164q-77 -103 -111 -258q-24 -112 -24 -289q0 -179 24 -291q34 -152 111 -256q77 -106 201 -165
q105 -48 239 -48zM821 1323q95 0 174.5 -37t128.5 -104q97 -132 97 -447q0 -316 -97 -448q-49 -67 -128 -102t-175 -35t-175 35t-128 102q-96 131 -96 448q0 316 96 447q49 67 128.5 104t174.5 37zM821 1597q95 0 161.5 64.5t66.5 155.5h-113q0 -41 -34.5 -71t-80.5 -30
q-47 0 -79.5 29.5t-32.5 71.5h-115q0 -91 65.5 -155.5t161.5 -64.5z" />
    <glyph glyph-name="obreve" unicode="&#x14f;" horiz-adv-x="1062" 
d="M639 -10q94 0 173 25t140 98q62 77 86.5 189.5t24.5 201.5t-24.5 201.5t-86.5 189.5q-58 72 -136.5 96.5t-176.5 24.5q-96 0 -173.5 -24.5t-135.5 -96.5q-62 -77 -87.5 -190.5t-25.5 -200.5t25.5 -200.5t87.5 -190.5q59 -73 137.5 -98t171.5 -25zM639 858q74 0 115 -12.5
t67 -44.5q30 -37 47 -119t17 -178t-17 -178t-47 -119q-27 -33 -68 -46.5t-114 -13.5q-72 0 -112 13t-68 47q-30 36 -47 118t-17 179q0 96 17 178t47 119q26 32 66 44.5t114 12.5zM639 1118q95 0 161 64t66 155h-112q0 -41 -34.5 -70.5t-80.5 -29.5q-47 0 -80 29.5t-33 70.5
h-114q0 -91 65.5 -155t161.5 -64z" />
    <glyph glyph-name="Racute" unicode="&#x154;" horiz-adv-x="1257" 
d="M344 1464h514q174 0 295 -137q117 -129 117 -317t-117 -320q-56 -62 -125 -96l301 -594h-190l-281 553h-346v-553h-168v1464zM512 1300v-581h346q101 0 172.5 86t71.5 205q0 118 -71.5 204t-172.5 86h-346zM657 1661l279 209l78 -125l-283 -178z" />
    <glyph glyph-name="racute" unicode="&#x155;" horiz-adv-x="722" 
d="M506 887q34 61 94 90q59 29 119 41q61 12 147 12l-65 -176q-110 0 -174 -45q-58 -41 -88 -109q-25 -59 -31 -143q-2 -51 -2 -147v-410h-170v987h170v-100zM424 1227l278 209l78 -125l-282 -178z" />
    <glyph glyph-name="Rcaron" unicode="&#x158;" horiz-adv-x="1257" 
d="M344 1464h514q174 0 295 -137q117 -129 117 -317t-117 -320q-56 -62 -125 -96l301 -594h-190l-281 553h-346v-553h-168v1464zM512 1300v-581h346q101 0 172.5 86t71.5 205q0 118 -71.5 204t-172.5 86h-346zM678 1909h-150l220 -342h176l217 342h-150l-155 -244z" />
    <glyph glyph-name="rcaron" unicode="&#x159;" horiz-adv-x="722" 
d="M465 887q34 61 94 90q59 29 119 41q62 12 147 12l-65 -176q-110 0 -174 -45q-58 -41 -88 -109q-25 -59 -31 -143q-2 -51 -2 -147v-410h-170v987h170v-100zM403 1475h-149l219 -342h176l217 342h-149l-156 -244z" />
    <glyph glyph-name="Sacute" unicode="&#x15a;" horiz-adv-x="1150" 
d="M1030 731q111 -105 111 -301q0 -194 -121 -315q-125 -125 -330 -125q-116 0 -227 30q-147 41 -270 115l88 148q207 -121 409 -121q132 0 205.5 70.5t73.5 197.5q0 126 -58 176q-65 63 -243 86q-205 29 -306 119q-100 93 -100 272q0 175 109 287q113 113 299 113
q228 0 446 -129l-88 -148q-177 107 -358 107q-112 0 -174 -60.5t-62 -169.5q0 -106 47 -147q53 -53 211 -74q232 -34 338 -131zM489 1679l279 209l78 -125l-283 -178z" />
    <glyph glyph-name="sacute" unicode="&#x15b;" horiz-adv-x="1032" 
d="M627 -8q161 0 252 43q147 67 147 241q0 64 -29 121.5t-82 98.5q-102 79 -251 79q-236 0 -236 132q0 49 32.5 82.5t77.5 47t97 13.5q60 0 139 -20.5t126 -39.5t50 -22l35 76l-35 -76l70 154q-16 8 -65 27t-146.5 43t-173.5 24q-164 0 -268.5 -86.5t-104.5 -222.5
q0 -89 39 -148q35 -55 102 -94q101 -55 261 -55q94 0 151 -45q47 -38 47 -89q0 -69 -55 -92q-51 -26 -180 -26q-57 0 -113 10t-94 23.5t-69.5 29t-45.5 24.5t-16 11l-101 -135q4 -4 22.5 -16t60 -32t91 -37.5t121 -30.5t144.5 -13zM428 1212l279 209l77 -125l-282 -178z" />
    <glyph glyph-name="Scircumflex" unicode="&#x15c;" horiz-adv-x="1150" 
d="M1030 731q111 -105 111 -301q0 -194 -121 -315q-125 -125 -330 -125q-116 0 -227 30q-147 41 -270 115l88 148q207 -121 409 -121q132 0 205.5 70.5t73.5 197.5q0 126 -58 176q-65 63 -243 86q-205 29 -306 119q-100 93 -100 272q0 175 109 287q113 113 299 113
q228 0 446 -129l-88 -148q-177 107 -358 107q-112 0 -174 -60.5t-62 -169.5q0 -106 47 -147q53 -53 211 -74q232 -34 338 -131zM823 1585h150l-215 342h-183l-215 -342h150l158 244z" />
    <glyph glyph-name="scircumflex" unicode="&#x15d;" horiz-adv-x="1032" 
d="M627 -8q161 0 252 43q147 67 147 241q0 64 -29 121.5t-82 98.5q-102 79 -251 79q-236 0 -236 132q0 49 32.5 82.5t77.5 47t97 13.5q60 0 139 -20.5t126 -39.5t50 -22l35 76l-35 -76l70 154q-16 8 -65 27t-146.5 43t-173.5 24q-164 0 -268.5 -86.5t-104.5 -222.5
q0 -89 39 -148q35 -55 102 -94q101 -55 261 -55q94 0 151 -45q47 -38 47 -89q0 -69 -55 -92q-51 -26 -180 -26q-57 0 -113 10t-94 23.5t-69.5 29t-45.5 24.5t-16 11l-101 -135q4 -4 22.5 -16t60 -32t91 -37.5t121 -30.5t144.5 -13zM762 1118h149l-215 342h-182l-215 -342
h150l157 244z" />
    <glyph glyph-name="Scaron" unicode="&#x160;" horiz-adv-x="1150" 
d="M1030 731q111 -105 111 -301q0 -194 -121 -315q-125 -125 -330 -125q-116 0 -227 30q-147 41 -270 115l88 148q207 -121 409 -121q132 0 205.5 70.5t73.5 197.5q0 126 -58 176q-65 63 -243 86q-205 29 -306 119q-100 93 -100 272q0 175 109 287q113 113 299 113
q228 0 446 -129l-88 -148q-177 107 -358 107q-112 0 -174 -60.5t-62 -169.5q0 -106 47 -147q53 -53 211 -74q232 -34 338 -131zM520 1927h-149l219 -342h176l217 342h-149l-156 -244z" />
    <glyph glyph-name="scaron" unicode="&#x161;" horiz-adv-x="1032" 
d="M627 -8q161 0 252 43q147 67 147 241q0 64 -29 121.5t-82 98.5q-102 79 -251 79q-236 0 -236 132q0 49 32.5 82.5t77.5 47t97 13.5q60 0 139 -20.5t126 -39.5t50 -22l35 76l-35 -76l70 154q-16 8 -65 27t-146.5 43t-173.5 24q-164 0 -268.5 -86.5t-104.5 -222.5
q0 -89 39 -148q35 -55 102 -94q101 -55 261 -55q94 0 151 -45q47 -38 47 -89q0 -69 -55 -92q-51 -26 -180 -26q-57 0 -113 10t-94 23.5t-69.5 29t-45.5 24.5t-16 11l-101 -135q4 -4 22.5 -16t60 -32t91 -37.5t121 -30.5t144.5 -13zM449 1460h-150l219 -342h176l217 342h-149
l-156 -243z" />
    <glyph glyph-name="Tcaron" unicode="&#x164;" horiz-adv-x="1130" 
d="M90 1464h1040v-159h-436v-1305h-168v1305h-436v159zM453 1909h-150l219 -342h176l217 342h-149l-156 -244z" />
    <glyph glyph-name="tcaron" unicode="&#x165;" horiz-adv-x="843" 
d="M735 211l84 -148q-170 -88 -264 -88q-110 0 -178 72q-64 69 -64 180v600h-166v160h166v246h168v-246h283v-160h-283v-606q5 -43 19 -59q17 -17 55 -17q30 0 84.5 21t95.5 45zM326 1677h-150l219 -342h176l217 342h-149l-156 -243z" />
    <glyph glyph-name="Utilde" unicode="&#x168;" horiz-adv-x="1388" 
d="M856 -23q263 0 401 150q45 48 74.5 107t39 111t12 82.5t1.5 49.5v987h-167v-1003q0 -142 -80 -228q-97 -104 -281 -104q-171 0 -270 102q-26 26 -44.5 61t-27 62.5t-13 58.5t-5 41t-0.5 19v991h-168v-977q0 -223 135 -362q139 -148 393 -148zM971 1567q13 0 37 4
q70 17 99.5 69.5t27.5 100.5h-127q-3 -9 -7 -23q-6 -15 -24 -18q-20 -5 -88 37q-113 62 -184 45q-69 -18 -98 -70.5t-27 -101.5h125q2 16 6 22q9 18 26 21q16 3 90 -35q88 -51 144 -51z" />
    <glyph glyph-name="utilde" unicode="&#x169;" horiz-adv-x="1144" 
d="M961 989h169v-989h-169v84q-147 -111 -320 -111h-20q-135 0 -220 76q-94 85 -94 242v698h170v-698q0 -79 37 -113q37 -35 121 -35q137 0 250 101q49 43 76 84v661zM834 1092q12 0 36 4q70 17 99.5 69.5t27.5 100.5h-127q-2 -9 -6 -23q-6 -15 -24 -18q-20 -5 -88 37
q-114 62 -185 45q-69 -18 -98 -70.5t-27 -101.5h125q2 16 6 22q9 18 27 21q16 3 90 -35q88 -51 144 -51z" />
    <glyph glyph-name="Ubreve" unicode="&#x16c;" horiz-adv-x="1388" 
d="M856 -23q263 0 401 150q45 48 74.5 107t39 111t12 82.5t1.5 49.5v987h-167v-1003q0 -142 -80 -228q-97 -104 -281 -104q-171 0 -270 102q-26 26 -44.5 61t-27 62.5t-13 58.5t-5 41t-0.5 19v991h-168v-977q0 -223 135 -362q139 -148 393 -148zM856 1567q95 0 161 64
t66 155h-112q0 -41 -34.5 -70.5t-80.5 -29.5q-47 0 -80 29.5t-33 70.5h-114q0 -91 65.5 -155t161.5 -64z" />
    <glyph glyph-name="ubreve" unicode="&#x16d;" horiz-adv-x="1144" 
d="M961 989h169v-989h-169v84q-147 -111 -320 -111h-20q-135 0 -220 76q-94 85 -94 242v698h170v-698q0 -79 37 -113q37 -35 121 -35q137 0 250 101q49 43 76 84v661zM719 1092q95 0 161 64t66 155h-112q0 -41 -34.5 -71t-80.5 -30q-47 0 -80 30t-33 71h-114
q0 -91 65.5 -155t161.5 -64z" />
    <glyph glyph-name="Uring" unicode="&#x16e;" horiz-adv-x="1388" 
d="M856 -23q263 0 401 150q45 48 74.5 107t39 111t12 82.5t1.5 49.5v987h-167v-1003q0 -142 -80 -228q-97 -104 -281 -104q-171 0 -270 102q-26 26 -44.5 61t-27 62.5t-13 58.5t-5 41t-0.5 19v991h-168v-977q0 -223 135 -362q139 -148 393 -148zM854 1567q75 0 129.5 54.5
t54.5 129.5t-54.5 129.5t-129.5 54.5t-128.5 -54.5t-53.5 -129.5t53.5 -129.5t128.5 -54.5zM854 1833q32 0 54 -24.5t22 -57.5t-22 -58.5t-54 -25.5t-54 25.5t-22 58.5t22 57.5t54 24.5z" />
    <glyph glyph-name="uring" unicode="&#x16f;" horiz-adv-x="1144" 
d="M961 989h169v-989h-169v84q-147 -111 -320 -111h-20q-135 0 -220 76q-94 85 -94 242v698h170v-698q0 -79 37 -113q37 -35 121 -35q137 0 250 101q49 43 76 84v661zM717 1092q75 0 129.5 54.5t54.5 129.5t-54.5 129.5t-129.5 54.5t-128.5 -54.5t-53.5 -129.5t53.5 -129.5
t128.5 -54.5zM717 1358q32 0 54 -24.5t22 -57.5t-22 -58.5t-54 -25.5t-54 25.5t-22 58.5t22 57.5t54 24.5z" />
    <glyph glyph-name="Wcircumflex" unicode="&#x174;" horiz-adv-x="2062" 
d="M967 1114h202l357 -938l358 1290h180l-411 -1466h-244l-340 920l-321 -920h-242l-412 1466h178l361 -1290zM1235 1569h149l-215 342h-182l-215 -342h150l157 243z" />
    <glyph glyph-name="wcircumflex" unicode="&#x175;" horiz-adv-x="1603" 
d="M623 0l241 535l234 -533l225 -2l285 989h-183l-223 -829l-229 520h-221l-230 -520l-221 829h-182l287 -989h217zM1020 1092h149l-215 342h-182l-215 -342h150l157 243z" />
    <glyph glyph-name="Ycircumflex" unicode="&#x176;" horiz-adv-x="1075" 
d="M1083 1464l-419 -977v-487h-170v487l-420 977h184l322 -770l319 770h184zM733 1567h150l-215 342h-183l-215 -342h150l158 243z" />
    <glyph glyph-name="ycircumflex" unicode="&#x177;" horiz-adv-x="1069" 
d="M895 991h178l-481 -1294q-6 -6 -19 -35q-16 -32 -47 -57q-33 -26 -94 -56q-64 -28 -151 -28v172q91 0 122 28q15 13 35 33l60 166l-400 1071h181l307 -819zM741 1094h150l-215 342h-182l-215 -342h149l158 243z" />
    <glyph glyph-name="Ydieresis" unicode="&#x178;" horiz-adv-x="1075" 
d="M1083 1464l-419 -977v-487h-170v487l-420 977h184l322 -770l319 770h184zM324 1735v-168h161v168h-161zM672 1735v-168h162v168h-162z" />
    <glyph glyph-name="Zacute" unicode="&#x179;" horiz-adv-x="1212" 
d="M1212 0v168h-786l780 1130v166h-944v-166h742l-779 -1130v-168h987zM541 1661l278 209l78 -125l-283 -178z" />
    <glyph glyph-name="zacute" unicode="&#x17a;" horiz-adv-x="1052" 
d="M1053 0v158h-607l592 676v157h-751v-157h530l-592 -676v-158h828zM461 1188l278 209l78 -125l-282 -178z" />
    <glyph glyph-name="Zcaron" unicode="&#x17d;" horiz-adv-x="1212" 
d="M1212 0v168h-786l780 1130v166h-944v-166h742l-779 -1130v-168h987zM561 1909h-149l219 -342h176l217 342h-150l-155 -244z" />
    <glyph glyph-name="zcaron" unicode="&#x17e;" horiz-adv-x="1052" 
d="M1053 0v158h-607l592 676v157h-751v-157h530l-592 -676v-158h828zM481 1436h-149l219 -342h176l217 342h-149l-156 -244z" />
    <glyph glyph-name="Acaron" unicode="&#x1cd;" horiz-adv-x="1372" 
d="M1186 0l-117 340h-670l-116 -340h-189l516 1464h252l514 -1464h-190zM735 1341l-282 -837h563zM578 1909h-150l219 -342h176l217 342h-149l-156 -244z" />
    <glyph glyph-name="acaron" unicode="&#x1ce;" horiz-adv-x="1062" 
d="M752 1014zM1026 799q2 -13 2.5 -212t-0.5 -392v-193h-168v53l-35 -12q-131 -61 -297 -61q-120 0 -194.5 70t-83.5 190q-6 78 18.5 155t79.5 133t127 66q23 4 70 4q110 0 280 -37l35 -8v80q3 103 -14 143q-21 49 -84 60q-24 4 -39 4q-115 0 -336 -101l-4 -2l-104 131l4 2
q26 16 61.5 34t101 45.5t147 45t159.5 17.5q84 0 151 -33q111 -56 123 -182zM860 279v129l-20 4q-106 24 -230 24q-69 0 -121 -8q-33 -7 -57 -57q-30 -61 -24 -119q6 -100 120 -100q39 0 59.5 0.5t57.5 1.5t57.5 4.5t49.5 9t45 15.5t32.5 22.5t23.5 31.5t7 42zM477 1458
h-149l219 -342h176l217 342h-149l-156 -244z" />
    <glyph glyph-name="Icaron" unicode="&#x1cf;" horiz-adv-x="512" 
d="M121 1464v-1462h168v1462h-168zM47 1909h-149l219 -342h176l217 342h-150l-155 -244z" />
    <glyph glyph-name="Ocaron" unicode="&#x1d1;" horiz-adv-x="1396" 
d="M821 -25q135 0 240 48q124 59 201 165q82 110 110 256q25 117 25 291q0 172 -25 289q-29 148 -110 258q-80 109 -201 164q-107 49 -240 49q-132 0 -239 -49q-121 -55 -201 -164q-77 -103 -111 -258q-24 -112 -24 -289q0 -179 24 -291q34 -152 111 -256q77 -106 201 -165
q105 -48 239 -48zM821 1323q95 0 174.5 -37t128.5 -104q97 -132 97 -447q0 -316 -97 -448q-49 -67 -128 -102t-175 -35t-175 35t-128 102q-96 131 -96 448q0 316 96 447q49 67 128.5 104t174.5 37zM664 1939h-150l219 -342h176l217 342h-149l-156 -243z" />
    <glyph glyph-name="ocaron" unicode="&#x1d2;" horiz-adv-x="1062" 
d="M639 -10q94 0 173 25t140 98q62 77 86.5 189.5t24.5 201.5t-24.5 201.5t-86.5 189.5q-58 72 -136.5 96.5t-176.5 24.5q-96 0 -173.5 -24.5t-135.5 -96.5q-62 -77 -87.5 -190.5t-25.5 -200.5t25.5 -200.5t87.5 -190.5q59 -73 137.5 -98t171.5 -25zM639 858q74 0 115 -12.5
t67 -44.5q30 -37 47 -119t17 -178t-17 -178t-47 -119q-27 -33 -68 -46.5t-114 -13.5q-72 0 -112 13t-68 47q-30 36 -47 118t-17 179q0 96 17 178t47 119q26 32 66 44.5t114 12.5zM481 1460h-149l219 -342h176l217 342h-149l-156 -243z" />
    <glyph glyph-name="Ucaron" unicode="&#x1d3;" horiz-adv-x="1388" 
d="M856 -23q263 0 401 150q45 48 74.5 107t39 111t12 82.5t1.5 49.5v987h-167v-1003q0 -142 -80 -228q-97 -104 -281 -104q-171 0 -270 102q-26 26 -44.5 61t-27 62.5t-13 58.5t-5 41t-0.5 19v991h-168v-977q0 -223 135 -362q139 -148 393 -148zM698 1909h-149l219 -342h176
l217 342h-149l-156 -244z" />
    <glyph glyph-name="ucaron" unicode="&#x1d4;" horiz-adv-x="1144" 
d="M961 989h169v-989h-169v84q-147 -111 -320 -111h-20q-135 0 -220 76q-94 85 -94 242v698h170v-698q0 -79 37 -113q37 -35 121 -35q137 0 250 101q49 43 76 84v661zM561 1434h-149l219 -342h176l217 342h-150l-155 -244z" />
    <glyph glyph-name="Gcaron" unicode="&#x1e6;" horiz-adv-x="1222" 
d="M788 758h435v-756h-426q-130 0 -215 27q-124 39 -197 139q-76 102 -109 268q-30 153 -30 301q0 146 30 299q33 167 109 269q72 99 197 141q85 27 215 27t215 -27q123 -40 196 -141l-135 -101q-43 58 -106 78.5t-170 20.5q-106 0 -169.5 -20.5t-105.5 -78.5
q-49 -64 -76.5 -189.5t-27.5 -277.5t27.5 -278.5t76.5 -190.5q41 -58 104 -77t171 -19h256v424h-265v162zM575 1917h-149l219 -342h176l217 342h-149l-156 -244z" />
    <glyph glyph-name="gcaron" unicode="&#x1e7;" horiz-adv-x="1103" 
d="M874 987h168v-987q0 -24 -2.5 -50t-12 -82.5t-38 -115t-71.5 -104.5q-116 -116 -302 -119h-20q-33 0 -71 6t-94 22.5t-114 55.5t-104 96l131 105q28 -35 65.5 -60t71.5 -36t64 -17t47 -6h18q121 0 187 69q77 81 77 232v106q-176 -110 -337 -110q-89 0 -158 43t-109 125
q-16 32 -26 69t-12.5 55.5t-2.5 26.5v2v389q0 20 4 46t17 69.5t46 86.5t81 71q109 59 268 33q95 -17 229 -74v53zM874 307v443q-147 74 -258 92q-102 15 -155 -15q-27 -16 -43 -48.5t-18.5 -49.5t-2.5 -27v-385q0 -1 2 -12t4.5 -22.5t7.5 -28t11 -29.5q35 -65 115 -65
q116 0 247 84q57 36 90 63zM469 1470h-150l220 -342h176l217 342h-150l-155 -243z" />
    <glyph glyph-name="Kcaron" unicode="&#x1e8;" horiz-adv-x="1288" 
d="M1202 0l-411 662l-277 -416v-246h-170v1464h170v-909l600 909h205l-424 -643l510 -821h-203zM717 1909h-150l219 -342h177l217 342h-150l-156 -244z" />
    <glyph glyph-name="kcaron" unicode="&#x1e9;" horiz-adv-x="1046" 
d="M963 0l-279 518l-180 -225v-293h-168v1462h168v-895l330 420h215l-256 -328l366 -659h-196zM590 1907h-150l219 -342h177l217 342h-150l-155 -244z" />
    <glyph glyph-name="jcaron" unicode="&#x1f0;" horiz-adv-x="638" 
d="M399 -225q0 -113 -63 -181q-62 -71 -178 -71q-66 0 -143 19t-105 34l82 148q88 -31 166 -31q39 0 55 16q18 20 18 60v1222h168v-1216zM231 1464v-202h168v202h-168zM-2 1909h-150l220 -342h176l217 342h-150l-155 -244z" />
    <glyph glyph-name="Gacute" unicode="&#x1f4;" horiz-adv-x="1222" 
d="M788 758h435v-756h-426q-130 0 -215 27q-124 39 -197 139q-76 102 -109 268q-30 153 -30 301q0 146 30 299q33 167 109 269q72 99 197 141q85 27 215 27t215 -27q123 -40 196 -141l-135 -101q-43 58 -106 78.5t-170 20.5q-106 0 -169.5 -20.5t-105.5 -78.5
q-49 -64 -76.5 -189.5t-27.5 -277.5t27.5 -278.5t76.5 -190.5q41 -58 104 -77t171 -19h256v424h-265v162zM555 1669l279 209l77 -125l-282 -178z" />
    <glyph glyph-name="gacute" unicode="&#x1f5;" horiz-adv-x="1103" 
d="M874 987h168v-987q0 -24 -2.5 -50t-12 -82.5t-38 -115t-71.5 -104.5q-116 -116 -302 -119h-20q-33 0 -71 6t-94 22.5t-114 55.5t-104 96l131 105q28 -35 65.5 -60t71.5 -36t64 -17t47 -6h18q121 0 187 69q77 81 77 232v106q-176 -110 -337 -110q-89 0 -158 43t-109 125
q-16 32 -26 69t-12.5 55.5t-2.5 26.5v2v389q0 20 4 46t17 69.5t46 86.5t81 71q109 59 268 33q95 -17 229 -74v53zM874 307v443q-147 74 -258 92q-102 15 -155 -15q-27 -16 -43 -48.5t-18.5 -49.5t-2.5 -27v-385q0 -1 2 -12t4.5 -22.5t7.5 -28t11 -29.5q35 -65 115 -65
q116 0 247 84q57 36 90 63zM449 1223l278 209l78 -125l-283 -179z" />
    <glyph glyph-name="Hcaron" unicode="&#x21e;" horiz-adv-x="1296" 
d="M1126 1464h170v-1462h-170v678h-612v-678h-170v1462h170v-624h612v624zM662 1909h-150l219 -342h176l217 342h-149l-156 -244z" />
    <glyph glyph-name="hcaron" unicode="&#x21f;" horiz-adv-x="1142" 
d="M1061 938q92 -83 92 -240v-698h-168v698q0 77 -39 113q-19 17 -48.5 26t-49.5 9h-19q-33 0 -68 -16t-74 -50.5t-54.5 -50t-50.5 -53.5q-70 -79 -76 -199v-477h-170v1464h170v-659q36 41 62.5 68t70.5 64.5t90.5 57t91.5 19.5q157 0 240 -76zM588 1909h-150l219 -342h177
l217 342h-150l-156 -244z" />
    <glyph glyph-name="circumflex" unicode="&#x2c6;" horiz-adv-x="915" 
d="M774 1081h150l-215 342h-183l-215 -342h150l157 244z" />
    <glyph glyph-name="circumflex" unicode="&#x302;" horiz-adv-x="915" 
d="M774 1081h150l-215 342h-183l-215 -342h150l157 244z" />
    <glyph glyph-name="caron" unicode="&#x2c7;" horiz-adv-x="915" 
d="M461 1421h-150l219 -342h177l217 342h-150l-156 -243z" />
    <glyph glyph-name="caron" unicode="&#x30c;" horiz-adv-x="915" 
d="M461 1421h-150l219 -342h177l217 342h-150l-156 -243z" />
    <glyph glyph-name="breve" unicode="&#x2d8;" horiz-adv-x="798" 
d="M580 1165q95 0 161 64t66 155h-113q0 -41 -34 -70.5t-80 -29.5q-47 0 -80 29.5t-33 70.5h-115q0 -91 66 -155t162 -64z" />
    <glyph glyph-name="breve" unicode="&#x306;" horiz-adv-x="798" 
d="M580 1165q95 0 161 64t66 155h-113q0 -41 -34 -70.5t-80 -29.5q-47 0 -80 29.5t-33 70.5h-115q0 -91 66 -155t162 -64z" />
    <glyph glyph-name="ring" unicode="&#x2da;" horiz-adv-x="677" 
d="M494 1096q75 0 129.5 54.5t54.5 129.5t-54.5 129.5t-129.5 54.5t-129 -54.5t-54 -129.5t54 -129.5t129 -54.5zM494 1362q32 0 53.5 -24.5t21.5 -57.5t-22 -58.5t-53 -25.5q-32 0 -54 25.5t-22 58.5t22 57.5t54 24.5z" />
    <glyph glyph-name="ring" unicode="&#x30a;" horiz-adv-x="677" 
d="M494 1096q75 0 129.5 54.5t54.5 129.5t-54.5 129.5t-129.5 54.5t-129 -54.5t-54 -129.5t54 -129.5t129 -54.5zM494 1362q32 0 53.5 -24.5t21.5 -57.5t-22 -58.5t-53 -25.5q-32 0 -54 25.5t-22 58.5t22 57.5t54 24.5z" />
    <glyph glyph-name="tilde" unicode="&#x2dc;" horiz-adv-x="884" 
d="M713 1157q13 0 37 4q70 17 99.5 69.5t27.5 100.5h-127q-3 -8 -7 -22q-6 -16 -24 -19q-20 -5 -88 37q-114 62 -185 45q-48 -12 -78 -46t-38.5 -65t-7.5 -61h124q3 17 7 23q9 17 26 20q16 3 90 -35q88 -51 144 -51z" />
    <glyph glyph-name="tilde" unicode="&#x303;" horiz-adv-x="884" 
d="M713 1157q13 0 37 4q70 17 99.5 69.5t27.5 100.5h-127q-3 -8 -7 -22q-6 -16 -24 -19q-20 -5 -88 37q-114 62 -185 45q-48 -12 -78 -46t-38.5 -65t-7.5 -61h124q3 17 7 23q9 17 26 20q16 3 90 -35q88 -51 144 -51z" />
    <glyph glyph-name="breveinvertedcmb" unicode="&#x311;" horiz-adv-x="798" 
d="M580 1382q95 0 161 -64t66 -155h-113q0 41 -34 71t-80 30q-47 0 -80 -30t-33 -71h-115q0 91 66 155t162 64z" />
    <glyph glyph-name="uni1FED" unicode="&#x1fed;" horiz-adv-x="806" 
 />
    <glyph glyph-name="uni1FEE" unicode="&#x1fee;" horiz-adv-x="806" 
 />
    <glyph glyph-name="endash" unicode="&#x2013;" horiz-adv-x="858" 
d="M98 621v-109h760v109h-760z" />
    <glyph glyph-name="emdash" unicode="&#x2014;" horiz-adv-x="1218" 
d="M98 621v-109h1121v109h-1121z" />
    <glyph glyph-name="quoteleft" unicode="&#x2018;" horiz-adv-x="663" 
d="M512 1452l111 -29l-138 -438h-211z" />
    <glyph glyph-name="quoteright" unicode="&#x2019;" horiz-adv-x="667" 
d="M471 985l-115 31l140 436h213z" />
    <glyph glyph-name="quotesinglbase" unicode="&#x201a;" horiz-adv-x="667" 
d="M469 -264l-113 26l140 441h213z" />
    <glyph glyph-name="quotedblleft" unicode="&#x201c;" horiz-adv-x="999" 
d="M514 1456l111 -31l-138 -436h-213zM846 1456l112 -31l-137 -436h-213z" />
    <glyph glyph-name="quotedblright" unicode="&#x201d;" horiz-adv-x="999" 
d="M801 989l-111 31l137 436h213zM469 989l-113 31l138 436h213z" />
    <glyph glyph-name="quotedblbase" unicode="&#x201e;" horiz-adv-x="999" 
d="M803 -264l-113 26l139 441h211zM469 -264l-113 26l140 441h213z" />
    <glyph glyph-name="bullet" unicode="&#x2022;" horiz-adv-x="731" 
d="M524 727q-80 0 -144.5 -61.5t-64.5 -145.5t64.5 -145.5t144.5 -61.5t143.5 61.5t63.5 145.5t-63.5 145.5t-143.5 61.5z" />
    <glyph glyph-name="Euro" unicode="&#x20ac;" horiz-adv-x="1325" 
d="M1262 201l63 -158q-146 -57 -307 -57q-149 0 -264 32q-141 43 -234 144q-94 105 -137 274q-2 6 -4 18.5t-4 18.5h-191l31 139h137q-6 56 -6 113v18q0 55 6 107h-168l31 139h158q2 8 5 22.5t5 22.5q41 165 137 271q88 98 234 143q119 33 264 33q165 0 307 -58l-63 -157
q-109 45 -244 45q-126 0 -215 -25q-97 -26 -160 -96q-66 -69 -96 -199v-2h583l-30 -139h-578q-8 -78 -8 -115q0 -41 8 -123h608l-30 -139h-551q30 -127 94 -197q61 -67 160 -94q85 -24 215 -24q140 0 244 43z" />
    <glyph glyph-name="controlBS" horiz-adv-x="0" 
 />
    <glyph glyph-name="controlHT" horiz-adv-x="600" 
 />
    <glyph glyph-name="glyph4" 
 />
    <glyph glyph-name="glyph6" 
 />
    <glyph glyph-name="glyph8" 
 />
    <glyph glyph-name="glyph10" 
 />
    <glyph glyph-name="glyph12" 
 />
    <glyph glyph-name="glyph14" 
 />
    <glyph glyph-name="glyph16" 
 />
    <glyph glyph-name="glyph18" 
 />
    <glyph glyph-name="glyph19" 
 />
    <glyph glyph-name="glyph21" 
 />
    <glyph glyph-name="glyph23" 
 />
    <glyph glyph-name="glyph25" 
 />
    <glyph glyph-name="glyph26" 
 />
    <glyph glyph-name="glyph28" 
 />
    <glyph glyph-name="glyph31" 
 />
    <glyph glyph-name="glyph32" 
 />
    <glyph glyph-name="glyph34" 
 />
    <glyph glyph-name="glyph37" 
 />
    <glyph glyph-name="glyph38" 
 />
    <glyph glyph-name="glyph40" 
 />
    <glyph glyph-name="glyph42" 
 />
    <glyph glyph-name="glyph44" 
 />
    <glyph glyph-name="glyph46" 
 />
    <glyph glyph-name="glyph48" 
 />
    <glyph glyph-name="glyph50" 
 />
    <glyph glyph-name="glyph52" 
 />
    <glyph glyph-name="glyph55" 
 />
    <glyph glyph-name="glyph56" 
 />
    <glyph glyph-name="glyph58" 
 />
    <glyph glyph-name="glyph60" 
 />
    <glyph glyph-name="glyph62" 
 />
    <glyph glyph-name="glyph65" 
 />
    <glyph glyph-name="glyph67" 
 />
    <glyph glyph-name="glyph73" 
d="M561 279h889v167h-715v521h639v168h-639v467h715v167l-889 3v-1493z" />
    <glyph glyph-name="glyph76" 
 />
    <glyph glyph-name="glyph77" 
 />
    <glyph glyph-name="glyph79" 
 />
    <glyph glyph-name="glyph81" 
 />
    <glyph glyph-name="glyph83" 
 />
    <glyph glyph-name="glyph86" 
 />
    <glyph glyph-name="glyph89" 
 />
    <glyph glyph-name="glyph90" 
 />
    <glyph glyph-name="glyph92" 
 />
    <glyph glyph-name="glyph93" 
 />
    <glyph glyph-name="glyph95" 
 />
    <glyph glyph-name="glyph97" 
 />
    <glyph glyph-name="glyph100" 
 />
    <glyph glyph-name="glyph102" 
 />
    <glyph glyph-name="glyph103" 
 />
    <glyph glyph-name="glyph104" 
 />
    <glyph glyph-name="glyph106" 
 />
    <glyph glyph-name="glyph108" 
 />
    <glyph glyph-name="glyph110" 
 />
    <glyph glyph-name="glyph112" 
 />
    <glyph glyph-name="glyph113" 
 />
    <glyph glyph-name="glyph115" 
 />
    <glyph glyph-name="glyph116" 
 />
    <glyph glyph-name="glyph119" 
 />
    <glyph glyph-name="glyph121" 
 />
    <glyph glyph-name="glyph133" 
 />
    <glyph glyph-name="glyph135" 
 />
    <glyph glyph-name="glyph137" 
 />
    <glyph glyph-name="glyph139" 
 />
    <glyph glyph-name="glyph140" 
 />
    <glyph glyph-name="glyph141" 
 />
    <glyph glyph-name="glyph142" 
 />
    <glyph glyph-name="glyph143" 
 />
    <glyph glyph-name="glyph144" 
 />
    <glyph glyph-name="glyph145" 
 />
    <glyph glyph-name="glyph146" 
 />
    <glyph glyph-name="glyph147" 
 />
    <glyph glyph-name="glyph148" 
 />
    <glyph glyph-name="glyph149" 
 />
    <glyph glyph-name="glyph150" 
 />
    <glyph glyph-name="glyph151" 
 />
    <glyph glyph-name="glyph152" 
 />
    <glyph glyph-name="glyph153" 
 />
    <glyph glyph-name="glyph154" 
 />
    <glyph glyph-name="glyph155" 
 />
    <glyph glyph-name="glyph156" 
 />
    <glyph glyph-name="glyph157" 
 />
    <glyph glyph-name="glyph159" 
 />
    <glyph glyph-name="glyph161" 
 />
    <glyph glyph-name="glyph163" 
 />
    <glyph glyph-name="glyph165" 
 />
    <glyph glyph-name="glyph167" 
 />
    <glyph glyph-name="glyph168" 
 />
    <glyph glyph-name="glyph170" 
 />
    <glyph glyph-name="glyph172" 
 />
    <glyph glyph-name="glyph174" 
 />
    <glyph glyph-name="glyph176" 
 />
    <glyph glyph-name="glyph178" 
 />
    <glyph glyph-name="glyph180" 
 />
    <glyph glyph-name="glyph184" 
 />
    <glyph glyph-name="glyph187" 
 />
    <glyph glyph-name="glyph188" 
 />
    <glyph glyph-name="glyph190" 
 />
    <glyph glyph-name="glyph194" 
 />
    <glyph glyph-name="glyph196" 
 />
    <glyph glyph-name="glyph198" 
 />
    <glyph glyph-name="glyph200" 
 />
    <glyph glyph-name="glyph213" 
 />
    <glyph glyph-name="glyph215" 
 />
    <glyph glyph-name="glyph237" 
 />
    <glyph glyph-name="glyph239" 
 />
    <glyph glyph-name="glyph240" 
 />
    <glyph glyph-name="glyph241" 
 />
    <glyph glyph-name="glyph243" 
 />
    <glyph glyph-name="glyph244" 
 />
    <glyph glyph-name="glyph246" 
 />
    <glyph glyph-name="glyph302" 
 />
    <glyph glyph-name="glyph304" 
 />
    <glyph glyph-name="glyph306" 
 />
    <glyph glyph-name="glyph308" 
 />
    <glyph glyph-name="glyph310" 
 />
    <glyph glyph-name="glyph312" 
 />
    <glyph glyph-name="glyph314" 
 />
    <glyph glyph-name="glyph315" 
 />
    <glyph glyph-name="glyph316" 
 />
    <glyph glyph-name="medizero" horiz-adv-x="1142" 
d="M715 -8q220 0 332 127q59 66 77.5 161t18.5 224t-18.5 224t-77.5 161q-112 127 -332 127t-332 -127q-59 -66 -77.5 -161t-18.5 -224t18.5 -224t77.5 -161q112 -127 332 -127zM715 846q144 0 205 -70q51 -59 51 -272q0 -214 -51 -273q-61 -69 -205 -69t-205 69
q-53 61 -53 273q0 211 53 272q61 70 205 70z" />
    <glyph glyph-name="medione" horiz-adv-x="935" 
d="M856 0v989h-238l-339 -227l90 -137l319 213v-838h168z" />
    <glyph glyph-name="meditwo" horiz-adv-x="1079" 
d="M1077 0v158h-452l282 233q150 119 150 271q0 146 -109 249q-106 103 -258 103q-150 0 -256 -103q-54 -52 -84 -118l156 -66q13 32 45 61q56 56 139 56q82 0 141 -56q56 -53 56 -126q0 -70 -84 -138l-484 -372v-152h758z" />
    <glyph glyph-name="medithree" horiz-adv-x="1089" 
d="M205 0h170q15 -92 86 -151.5t166 -59.5q104 0 178 77t74 187q0 109 -74 186.5t-178 77.5h-156v172l311 330h-475v168h715v-158l-322 -350q149 -28 249 -148t100 -278q0 -181 -123.5 -306.5t-298.5 -125.5q-164 0 -284.5 108t-137.5 271z" />
    <glyph glyph-name="medifour" horiz-adv-x="1060" 
d="M918 -360v362h155v158h-155v829h-185l-516 -811v-176h533v-362h168zM401 160l349 557v-557h-349z" />
    <glyph glyph-name="medifive" horiz-adv-x="1085" 
d="M375 2h-170q20 -162 139.5 -270.5t280.5 -108.5q175 0 297 127t122 307t-122 306t-297 126h-148v330h508v170h-678v-670h318q104 0 176.5 -76t72.5 -186t-72.5 -187t-176.5 -77q-92 0 -161.5 59t-88.5 150z" />
    <glyph glyph-name="medisix" horiz-adv-x="1093" 
d="M717 1470zM1087 1366l-83 -143q0 2 -42.5 20.5t-114.5 38.5t-132 21q-99 0 -172 -70q-74 -74 -74 -209v-244q186 78 279 78q162 0 256 -98q98 -98 110 -283q0 -81 -6 -127q-25 -156 -104 -244q-105 -114 -287 -114q-215 0 -328 119q-40 42 -61.5 94t-25 81t-1.5 48v690
q0 211 123 330q57 56 133.5 86t159.5 30q166 -2 370 -104zM877 219q36 38 52.5 101t15.5 107l-1 44q0 68 -29 121q-48 98 -167 98q-55 0 -140.5 -29t-138.5 -55v-278q0 -60 43 -105q60 -63 205 -63q107 0 160 59z" />
    <glyph glyph-name="mediseven" horiz-adv-x="1171" 
d="M741 -379l457 1198v170h-846v-170h664l-457 -1198h182z" />
    <glyph glyph-name="medieight" horiz-adv-x="1071" 
d="M946 664q125 -125 125 -328q0 -188 -143 -277q-106 -65 -269 -65q-162 0 -268 65q-141 88 -141 277q0 208 100 323q42 49 133 105q-64 33 -96 55q-63 47 -91 117t-28 176q0 201 156 299q103 64 235 64q133 0 236 -64q156 -98 156 -299q0 -100 -20 -169t-75 -120
q-12 -12 -29 -22.5t-30 -17t-35 -17t-33 -16.5q79 -48 117 -86zM438 1112q0 -74 13 -107t38 -51q34 -25 111 -61q2 -1 70 -39q51 28 82 43q76 35 92 51q39 39 39 164q0 110 -76 156q-61 39 -148 39q-84 0 -145 -39q-76 -46 -76 -156zM838 201q63 42 63 135q0 135 -74 209
q-35 35 -147 94q-7 4 -19.5 11.5t-19.5 11.5q-4 -2 -10.5 -7t-9.5 -6q-9 -5 -39 -23t-43 -25.5t-31.5 -22t-30.5 -27.5q-59 -68 -59 -215q0 -96 63 -135q64 -39 178 -39q115 0 179 39z" />
    <glyph glyph-name="medinine" horiz-adv-x="1095" 
d="M653 -379zM283 -274l84 143q0 -2 42 -20.5t114 -38.5t132 -21q101 0 172 68q74 74 74 211v151q-186 -78 -278 -78q-159 0 -254 99q-102 102 -113 284q0 81 6 127q21 146 107 242q106 115 284 115q217 0 328 -117q40 -42 62 -95t26 -83t2 -49v-596q0 -200 -125 -330
q-57 -55 -134 -86t-159 -31q-164 2 -370 105zM494 778q-16 -17 -29 -40t-20 -46t-12 -47t-6.5 -44t-2.5 -36.5t0 -25.5v-9q2 -69 31 -122q49 -99 168 -99q55 0 139.5 29t138.5 55v277q0 61 -43 104q-63 66 -205 66q-103 0 -159 -62z" />
    </font>
</defs>
</svg>
