<?xml version="1.0" standalone="no"?>
<!DOCTYPE svg PUBLIC "-//W3C//DTD SVG 1.1//EN" "http://www.w3.org/Graphics/SVG/1.1/DTD/svg11.dtd" >
<svg xmlns="http://www.w3.org/2000/svg" xmlns:xlink="http://www.w3.org/1999/xlink" version="1.1">
<metadata>
Created by FontForge 20170731 at Wed Mar  9 16:02:24 2022
 By Aleksey,,,
Copyright 2000-2003, The Font Bureau, Inc. Designed by Cyrus Highsmith, Tobias Frere-Jones, and Font Bureau. All rights reserved.
</metadata>
<defs>
<font id="BentonSansComp-Black" horiz-adv-x="1091" >
  <font-face 
    font-family="BentonSans Comp Black"
    font-weight="400"
    font-stretch="normal"
    units-per-em="2048"
    panose-1="2 0 5 6 5 0 0 2 0 4"
    ascent="1638"
    descent="-410"
    x-height="1096"
    cap-height="1516"
    bbox="-129 -426 2421 1942"
    underline-thickness="40"
    underline-position="-312"
    unicode-range="U+0020-FB0C"
  />
<missing-glyph horiz-adv-x="1597" 
d="M303 1253v60l344 -27l-20 230h344l-21 -230l344 27v-60h60l-27 -344l229 21v-344l-229 20l27 -344h-60v-59l-344 28l21 -231h-344l20 231l-344 -28v59h-59l28 344l-231 -20v344l231 -21l-28 344h59zM1087 1047l-137 10v-148h148zM647 909v148l-137 -10l-10 -138h147z
M950 606v-147l137 10l11 137h-148zM510 469l137 -10v147h-147z" />
    <glyph glyph-name="ff" unicode="ff" horiz-adv-x="1105" 
d="M131 0v846h-119v250h119v94q0 48 4.5 86t16 77.5t34 68t56.5 51.5t86.5 35t120.5 12q77 0 126 -7v-262q-28 4 -40 4q-40 0 -55 -23.5t-15 -68.5v-67h149v94q0 60 6 103t26 88.5t56 74t99 46.5t151 18q99 0 148 -7v-262q-28 4 -62 4q-47 0 -68.5 -18.5t-21.5 -73.5v-67
h148v-250h-148v-846h-334v846h-149v-846h-334z" />
    <glyph glyph-name="fi" unicode="fi" horiz-adv-x="1028" 
d="M610 1192v297h338v-297h-338zM131 0v846h-119v250h119v94q0 57 7 102.5t27.5 89.5t53.5 73t89 47t130 18q78 0 127 -7v-260q-14 2 -41 2q-59 0 -59 -92v-67h96v-250h-96v-846h-334zM612 0v1096h336v-1096h-336z" />
    <glyph glyph-name="ffi" unicode="ffi" horiz-adv-x="1511" 
d="M1094 1192v297h338v-297h-338zM131 0v846h-119v250h119v94q0 48 4.5 86t16 77.5t34 68t56.5 51.5t86.5 35t120.5 12q77 0 126 -7v-262q-28 4 -40 4q-40 0 -55 -23.5t-15 -68.5v-67h149v94q0 72 12.5 126.5t44.5 103t95.5 74.5t155.5 26q78 0 127 -7v-260q-14 2 -41 2
q-60 0 -60 -92v-67h96v-250h-96v-846h-334v846h-149v-846h-334zM1096 0v1096h336v-1096h-336z" />
    <glyph glyph-name="ffl" unicode="ffl" horiz-adv-x="1511" 
d="M131 0v846h-119v250h119v94q0 48 4.5 86t16 77.5t34 68t56.5 51.5t86.5 35t120.5 12q77 0 126 -7v-262q-28 4 -40 4q-40 0 -55 -23.5t-15 -68.5v-67h149v94q0 72 12.5 126.5t44.5 103t95.5 74.5t155.5 26q78 0 127 -7v-260q-14 2 -41 2q-60 0 -60 -92v-67h96v-250h-96
v-846h-334v846h-149v-846h-334zM1096 0v1516h336v-1516h-336z" />
    <glyph glyph-name="fj" unicode="fj" horiz-adv-x="1028" 
d="M610 1192v297h338v-297h-338zM131 0v846h-119v250h119v94q0 57 7 102.5t27.5 89.5t53.5 73t89 47t130 18q78 0 127 -7v-260q-14 2 -41 2q-59 0 -59 -92v-67h96v-250h-96v-846h-334zM608 -412q-22 0 -76.5 2.5t-58.5 3.5v254q12 -4 55 -4q84 0 84 95v1157h336v-1164
q0 -86 -15.5 -146.5t-53.5 -106.5t-105 -68.5t-166 -22.5z" />
    <glyph glyph-name=".notdef" horiz-adv-x="1597" 
d="M303 1253v60l344 -27l-20 230h344l-21 -230l344 27v-60h60l-27 -344l229 21v-344l-229 20l27 -344h-60v-59l-344 28l21 -231h-344l20 231l-344 -28v59h-59l28 344l-231 -20v344l231 -21l-28 344h59zM1087 1047l-137 10v-148h148zM647 909v148l-137 -10l-10 -138h147z
M950 606v-147l137 10l11 137h-148zM510 469l137 -10v147h-147z" />
    <glyph glyph-name=".null" horiz-adv-x="0" 
 />
    <glyph glyph-name="nonmarkingreturn" horiz-adv-x="682" 
 />
    <glyph glyph-name="space" unicode=" " horiz-adv-x="382" 
 />
    <glyph glyph-name="exclam" unicode="!" horiz-adv-x="579" 
d="M143 432l-47 1084h393l-47 -1084h-299zM109 0v322h368v-322h-368z" />
    <glyph glyph-name="quotedbl" unicode="&#x22;" horiz-adv-x="768" 
d="M442 969l-22 442v105h287v-105l-25 -442h-240zM86 969l-25 442v105h289v-105l-24 -442h-240z" />
    <glyph glyph-name="numbersign" unicode="#" horiz-adv-x="1148" 
d="M100 0l56 397h-144v267h185l28 188h-151v266h192l58 398h301l-58 -398h109l57 398h301l-55 -398h158v-266h-199l-29 -188h164v-267h-205l-55 -397h-303l55 397h-106l-56 -397h-303zM494 651h116l33 213h-119z" />
    <glyph glyph-name="dollar" unicode="$" horiz-adv-x="980" 
d="M356 1509v168h281v-178q86 -25 145.5 -86.5t91.5 -139t58 -192.5l-307 -71q-25 116 -56.5 167.5t-89.5 51.5q-43 0 -65.5 -26t-22.5 -68q0 -47 30.5 -90t78.5 -79.5t106.5 -75t117.5 -84.5t107 -98.5t78.5 -126.5t30.5 -161q0 -346 -303 -408v-202h-281v204
q-79 19 -138 62t-96 106.5t-58.5 133t-34.5 159.5l299 51q22 -127 59 -187t109 -60q112 0 112 110q0 43 -30.5 83t-78.5 74t-106.5 70.5t-117.5 83t-107 101.5t-78.5 135.5t-30.5 175.5q0 156 76.5 261.5t220.5 135.5z" />
    <glyph glyph-name="percent" unicode="%" horiz-adv-x="1722" 
d="M373 645q-176 0 -258 118t-82 322q0 209 84 329t256 120q174 0 257 -118t83 -326q0 -132 -32.5 -229t-110.5 -156.5t-197 -59.5zM403 0l631 1516h283l-631 -1516h-283zM1350 -16q-90 0 -156.5 33t-106 93.5t-58.5 139t-19 176.5q0 210 84 330.5t256 120.5
q173 0 256.5 -119t83.5 -326q0 -98 -19 -177.5t-59 -141t-106.5 -95.5t-155.5 -34zM373 856q36 0 47.5 49.5t11.5 181.5t-12.5 179t-48.5 47t-48 -45.5t-12 -175.5q0 -136 13 -186t49 -50zM1350 197q36 0 47.5 49.5t11.5 183.5q0 137 -12 180t-49 43q-36 0 -48 -45t-12 -174
q0 -140 12.5 -188.5t49.5 -48.5z" />
    <glyph glyph-name="ampersand" unicode="&#x26;" horiz-adv-x="1148" 
d="M614 776q18 -38 45 -76q61 -92 117 -159q39 125 39 266h281q-25 -270 -103 -455q62 -34 154 -53v-303q-180 9 -336 104q-141 -112 -346 -112q-220 0 -340.5 102t-120.5 281q0 82 19.5 151t57.5 122.5t78.5 93t96.5 79.5q-40 98 -60 175.5t-20 162.5q0 96 31 170.5
t84.5 119.5t120 68t141.5 23q92 0 161.5 -25.5t109 -70t58.5 -98t19 -115.5q0 -77 -18.5 -139t-65.5 -119t-76.5 -84.5t-100.5 -86.5q-17 -15 -26 -22zM516 979q102 95 102 221q0 80 -61 80q-35 0 -56.5 -26.5t-21.5 -75.5q0 -86 37 -199zM598 276q-79 84 -162 205
q-43 68 -49 78q-47 -73 -47 -153q0 -68 38.5 -115t110.5 -47q56 0 109 32z" />
    <glyph glyph-name="quotesingle" unicode="'" horiz-adv-x="417" 
d="M86 969l-25 442v105h295v-105l-24 -442h-246z" />
    <glyph glyph-name="parenleft" unicode="(" horiz-adv-x="665" 
d="M397 -422q-167 198 -264.5 451t-97.5 538q0 281 96.5 530t263.5 455l246 -127q-258 -465 -258 -858q0 -226 72.5 -462.5t187.5 -399.5z" />
    <glyph glyph-name="parenright" unicode=")" horiz-adv-x="665" 
d="M270 -422l-245 127q258 465 258 858q0 226 -72.5 462.5t-187.5 399.5l245 127q167 -198 265 -451t98 -538q0 -281 -97 -529.5t-264 -455.5z" />
    <glyph glyph-name="asterisk" unicode="*" horiz-adv-x="1062" 
d="M428 594l-252 145l211 240l-321 -59v288l331 -65l-225 252l256 143l102 -309l111 309l258 -143l-221 -250l319 63v-288l-315 59l215 -240l-252 -145l-115 299z" />
    <glyph glyph-name="plus" unicode="+" horiz-adv-x="993" 
d="M344 162v381h-278v288h278v381h305v-381h279v-288h-279v-381h-305z" />
    <glyph glyph-name="comma" unicode="," horiz-adv-x="495" 
d="M127 -260l82 260h-150v354h377v-327l-149 -287h-160z" />
    <glyph glyph-name="hyphen" unicode="-" horiz-adv-x="612" 
d="M55 483v287h502v-287h-502z" />
    <glyph glyph-name="period" unicode="." horiz-adv-x="495" 
d="M59 0v354h377v-354h-377z" />
    <glyph glyph-name="slash" unicode="/" horiz-adv-x="946" 
d="M-8 0l614 1516h348l-614 -1516h-348z" />
    <glyph glyph-name="zero" unicode="0" horiz-adv-x="1038" 
d="M516 -16q-119 0 -205.5 40.5t-148.5 130.5t-92.5 240t-30.5 363t30.5 363.5t92.5 240.5t148.5 131t205.5 41q120 0 206.5 -40.5t148 -131.5t92 -241t30.5 -363t-30.5 -363t-92 -240t-148 -130.5t-206.5 -40.5zM516 262q39 0 62.5 22t39 80t21.5 151t6 243
q0 198 -12.5 301.5t-39 144.5t-77.5 41t-77.5 -41t-39 -144.5t-12.5 -301.5q0 -197 12.5 -303.5t39.5 -149.5t77 -43z" />
    <glyph glyph-name="one" unicode="1" horiz-adv-x="751" 
d="M25 0v289h194v899q-39 -30 -92.5 -50t-99.5 -20v299q129 6 198 99h328v-1227h174v-289h-702z" />
    <glyph glyph-name="two" unicode="2" horiz-adv-x="942" 
d="M25 0v33q0 124 18 228t49 177t71 133.5t84 105t88 84t84 77.5t71 78t49 93.5t18 116.5q0 62 -20 90.5t-64 28.5q-22 0 -39 -8.5t-34.5 -31.5t-31.5 -71t-24 -120l-315 39q61 481 469 481q194 0 294.5 -104t100.5 -289q0 -99 -27 -187t-70 -152.5t-94.5 -122.5
t-103.5 -106.5t-95 -93t-70 -93t-27 -97.5h483v-289h-864z" />
    <glyph glyph-name="three" unicode="3" horiz-adv-x="964" 
d="M467 -18q-95 0 -167.5 21.5t-119.5 57.5t-80 93t-50.5 118.5t-29.5 143.5l299 45q18 -107 48 -154t84 -47q70 0 99.5 43t29.5 154q0 47 -5.5 80.5t-19 57t-30.5 37.5t-46.5 21.5t-60.5 10t-78 2.5h-70v266h88q46 0 78 3.5t55.5 13.5t36.5 23t20.5 37t10 50t2.5 67
q0 66 -24.5 94.5t-75.5 28.5q-55 0 -83.5 -44t-45.5 -126l-291 64q87 395 446 395q202 0 303 -97.5t101 -279.5q0 -278 -221 -346q84 -29 137 -74t83 -126t30 -201q0 -202 -114 -317t-339 -115z" />
    <glyph glyph-name="four" unicode="4" horiz-adv-x="1026" 
d="M522 0v301h-504v248l469 967h363v-947h151v-268h-151v-301h-328zM322 569h213v447h-3z" />
    <glyph glyph-name="five" unicode="5" horiz-adv-x="968" 
d="M477 -20q-82 0 -147 14t-111 42.5t-79 64.5t-55 88t-35 104t-23 121l299 45q17 -110 46.5 -155.5t84.5 -45.5q71 0 100 52.5t29 191.5q0 134 -25.5 186.5t-89.5 52.5q-41 0 -76 -30.5t-57 -83.5l-268 39l41 850h755l-18 -287h-451l-16 -316q85 109 237 109
q164 0 237 -122.5t73 -389.5q0 -265 -115.5 -397.5t-335.5 -132.5z" />
    <glyph glyph-name="six" unicode="6" horiz-adv-x="978" 
d="M500 -16q-241 0 -351 179t-110 568q0 422 116.5 614.5t360.5 192.5q91 0 160 -26.5t115.5 -78t75.5 -116.5t48 -152l-292 -67q-19 74 -44.5 112.5t-68.5 38.5q-53 0 -82.5 -33t-44 -114.5t-14.5 -229.5q51 47 119 74t133 27q321 0 321 -459q0 -250 -112 -390t-330 -140z
M508 256q61 0 90 57t29 179q0 105 -25 152.5t-86 47.5q-69 0 -147 -47q1 -160 17.5 -246t44.5 -114.5t77 -28.5z" />
    <glyph glyph-name="seven" unicode="7" horiz-adv-x="819" 
d="M82 0l395 1217h-479v299h815v-281l-385 -1235h-346z" />
    <glyph glyph-name="eight" unicode="8" horiz-adv-x="991" 
d="M496 -27q-120 0 -212.5 31t-148.5 86t-84 126t-28 157q0 224 235 407q-36 30 -58.5 52t-50 57t-43 71t-26 88t-10.5 113q0 167 113 274t313 107q206 0 316 -106t110 -275q0 -111 -52.5 -209t-138.5 -166q45 -32 74.5 -56t63.5 -62t53.5 -77t33 -95.5t13.5 -122.5
q0 -179 -125.5 -289.5t-347.5 -110.5zM504 950q94 98 94 195q0 121 -96 121q-48 0 -73.5 -29.5t-25.5 -85.5q0 -61 27 -108t74 -93zM492 240q63 0 93.5 39.5t30.5 103.5q0 115 -133 219q-116 -100 -116 -219q0 -62 31.5 -102.5t93.5 -40.5z" />
    <glyph glyph-name="nine" unicode="9" horiz-adv-x="978" 
d="M463 -20q-176 0 -269 96.5t-131 275.5l293 68q20 -77 45.5 -119.5t67.5 -42.5q54 0 83 30.5t43.5 115t14.5 243.5q-50 -47 -118.5 -73.5t-133.5 -26.5q-168 0 -244.5 114t-76.5 334q0 251 112.5 395t329.5 144q241 0 351 -178.5t110 -567.5q0 -422 -116.5 -615
t-360.5 -193zM463 827q69 0 147 47q-1 150 -17 233.5t-44.5 113.5t-77.5 30q-61 0 -90 -55.5t-29 -177.5q0 -103 24.5 -147t86.5 -44z" />
    <glyph glyph-name="colon" unicode=":" horiz-adv-x="507" 
d="M70 741v355h368v-355h-368zM70 0v354h368v-354h-368z" />
    <glyph glyph-name="semicolon" unicode=";" horiz-adv-x="507" 
d="M70 741v355h368v-355h-368zM135 -260l80 260h-145v354h368v-327l-147 -287h-156z" />
    <glyph glyph-name="less" unicode="&#x3c;" horiz-adv-x="993" 
d="M862 133l-758 412v237l758 412v-297l-452 -233l452 -234v-297z" />
    <glyph glyph-name="equal" unicode="=" horiz-adv-x="993" 
d="M59 741v265h873v-265h-873zM59 330v264h873v-264h-873z" />
    <glyph glyph-name="greater" unicode="&#x3e;" horiz-adv-x="993" 
d="M131 133v297l453 234l-453 233v297l758 -412v-237z" />
    <glyph glyph-name="question" unicode="?" horiz-adv-x="882" 
d="M258 430q-8 145 21.5 234t93.5 174q11 15 39.5 53t39 53t30 46t27 50.5t14.5 45.5t7 51q0 108 -79 108q-52 0 -81.5 -48.5t-45.5 -141.5l-301 49q72 430 448 430q182 0 283.5 -95.5t101.5 -273.5q0 -110 -57 -210t-154 -207q-61 -67 -76.5 -127.5t-15.5 -190.5h-295z
M217 0v322h369v-322h-369z" />
    <glyph glyph-name="at" unicode="@" horiz-adv-x="1333" 
d="M666 -29q-302 0 -462.5 202t-160.5 583q0 376 168.5 582t456.5 206q278 0 450 -206t172 -560q0 -231 -83 -343.5t-251 -112.5q-179 0 -254 139q-71 -139 -190 -139q-107 0 -158 106.5t-43 290.5q22 491 271 491q106 0 147 -108l8 90h246l-51 -584q-7 -85 10.5 -115
t61.5 -30q30 0 53 13.5t43 46.5t30.5 97.5t10.5 159.5q0 161 -35.5 284t-100 198.5t-150.5 113t-191 37.5q-106 0 -191 -36t-149 -112t-99 -203.5t-35 -299.5q0 -173 35 -301.5t100 -205t150 -113t193 -36.5q89 0 186.5 21t153.5 59l61 -116q-63 -43 -183.5 -71t-219.5 -28z
M623 549q22 0 49 12l39 408q-18 18 -49 18q-40 0 -61 -52.5t-30 -184.5q-12 -201 52 -201z" />
    <glyph glyph-name="A" unicode="A" horiz-adv-x="999" 
d="M346 285l-47 -285h-303l328 1522h352l328 -1522h-345l-47 285h-266zM571 522l-8 49q-6 32 -20.5 113.5t-21 122.5t-17.5 120t-21 167h-8q-9 -88 -19.5 -166t-17 -118t-21 -118.5t-20.5 -111.5l-10 -58h184z" />
    <glyph glyph-name="B" unicode="B" horiz-adv-x="1032" 
d="M80 0v1516h432q444 0 444 -379q0 -85 -16.5 -149t-47 -103.5t-66 -62.5t-81.5 -36v-4q55 -14 95 -37t74.5 -64t52.5 -108t18 -159q0 -90 -25 -162t-67.5 -118.5t-102 -77t-123.5 -43.5t-137 -13h-450zM422 895h80q58 0 86 36t28 134q0 97 -27 130.5t-87 33.5h-80v-334z
M422 264h86q67 0 100 46.5t33 150.5q0 109 -34 152.5t-103 43.5h-82v-393z" />
    <glyph glyph-name="C" unicode="C" horiz-adv-x="1026" 
d="M530 -16q-119 0 -209 42.5t-155 133.5t-98 241t-33 357t33.5 357.5t99 241.5t155 134t207.5 43q233 0 339 -140t120 -446l-332 -28q-10 180 -36.5 241.5t-90.5 61.5q-81 0 -110 -103t-29 -362q0 -262 30.5 -369.5t110.5 -107.5q46 0 71.5 25.5t41.5 93t25 196.5l331 -31
q-11 -101 -30.5 -182t-55.5 -157.5t-86.5 -128t-126.5 -82.5t-172 -31z" />
    <glyph glyph-name="D" unicode="D" horiz-adv-x="1079" 
d="M80 0v1516h360q80 0 144.5 -8t129 -29.5t113.5 -57.5t91.5 -93.5t70 -135.5t43 -186.5t15.5 -243.5q0 -189 -31 -327t-82 -221t-132 -132t-165 -65.5t-197 -16.5h-360zM432 293h51q87 0 130.5 42t60 138.5t16.5 288.5q0 114 -5.5 188t-18.5 129t-37.5 83.5t-59.5 41.5
t-88 13h-49v-924z" />
    <glyph glyph-name="E" unicode="E" horiz-adv-x="872" 
d="M80 0v1516h749v-299h-397v-285h283v-279h-283v-364h412v-289h-764z" />
    <glyph glyph-name="F" unicode="F" horiz-adv-x="837" 
d="M80 0v1516h745v-299h-393v-318h287v-276h-287v-623h-352z" />
    <glyph glyph-name="G" unicode="G" horiz-adv-x="1064" 
d="M483 -14q-241 0 -344.5 187t-103.5 587q0 394 122.5 584t370.5 190q206 0 310 -136t141 -454l-315 -37q-10 128 -26.5 196.5t-41.5 94t-68 25.5q-50 0 -79 -36t-45.5 -138.5t-16.5 -286.5q0 -136 11 -232t33 -150t49.5 -77.5t64.5 -23.5q69 0 107.5 51t47.5 170h-147v266
h446v-766h-223l-4 186h-4q-28 -90 -104.5 -145t-180.5 -55z" />
    <glyph glyph-name="H" unicode="H" horiz-adv-x="1103" 
d="M80 0v1516h352v-578h240v578h352v-1516h-352v653h-240v-653h-352z" />
    <glyph glyph-name="I" unicode="I" horiz-adv-x="532" 
d="M90 0v1516h352v-1516h-352z" />
    <glyph glyph-name="J" unicode="J" horiz-adv-x="802" 
d="M334 -16q-191 0 -334 77l115 263q98 -48 166 -48q55 0 78.5 35.5t23.5 120.5v1084h352v-1125q0 -212 -99 -309.5t-302 -97.5z" />
    <glyph glyph-name="K" unicode="K" horiz-adv-x="1028" 
d="M80 0v1516h344v-637q43 150 123 342l125 295h340l-289 -603l319 -913h-356l-201 600l-61 -145v-455h-344z" />
    <glyph glyph-name="L" unicode="L" horiz-adv-x="851" 
d="M80 0v1516h352v-1227h402v-289h-754z" />
    <glyph glyph-name="M" unicode="M" horiz-adv-x="1316" 
d="M80 0v1516h420l153 -973h9l153 973h420v-1516h-311v977h-9q-6 -60 -12.5 -113t-11 -81t-13 -79.5t-12.5 -76.5l-104 -627h-248l-106 643q-40 234 -48 334h-8v-977h-272z" />
    <glyph glyph-name="N" unicode="N" 
d="M80 0v1516h362l193 -525q72 -212 96 -301h8v826h273v-1516h-299l-250 623q-74 199 -103 301h-8v-924h-272z" />
    <glyph glyph-name="O" unicode="O" 
d="M547 -16q-116 0 -207.5 43t-161 133t-106.5 241t-37 357t37 357.5t106.5 242t161 133.5t207.5 43q115 0 206 -43t160.5 -133.5t106.5 -242.5t37 -357q0 -165 -24.5 -295.5t-68.5 -219.5t-108.5 -147.5t-140.5 -85t-168 -26.5zM547 285q86 0 119.5 110.5t33.5 362.5
q0 250 -33.5 357.5t-119.5 107.5q-87 0 -121.5 -107.5t-34.5 -357.5q0 -252 34.5 -362.5t121.5 -110.5z" />
    <glyph glyph-name="P" unicode="P" horiz-adv-x="995" 
d="M80 0v1516h395q78 0 144 -13t132.5 -48.5t113 -92t75.5 -150.5t29 -217q0 -96 -16 -174.5t-43 -133t-66.5 -95.5t-81.5 -65t-94 -39t-98 -20t-99 -5h-45v-463h-346zM426 748h61q74 0 106 52.5t32 188.5q0 130 -32 179t-108 49h-59v-469z" />
    <glyph glyph-name="Q" unicode="Q" 
d="M791 -416q-99 0 -173 24t-118 62.5t-71 96.5t-36.5 117t-9.5 132q-348 109 -348 742q0 206 37 357.5t106.5 242t161 133.5t207.5 43q115 0 206 -43t160.5 -133.5t106.5 -242.5t37 -357q0 -652 -369 -746q12 -82 53 -108.5t146 -26.5h59v-293h-155zM547 283
q85 0 119 111.5t34 363.5q0 250 -33.5 357.5t-119.5 107.5q-87 0 -121.5 -107.5t-34.5 -357.5q0 -252 34.5 -363.5t121.5 -111.5z" />
    <glyph glyph-name="R" unicode="R" horiz-adv-x="1026" 
d="M788 598l207 -598h-346l-170 492h-57v-492h-342v1516h418q218 0 343.5 -122.5t125.5 -383.5q0 -78 -14.5 -148.5t-56 -144t-108.5 -119.5zM422 770h70q68 0 100.5 50t32.5 184q0 127 -32.5 170t-103.5 43h-67v-447z" />
    <glyph glyph-name="S" unicode="S" horiz-adv-x="997" 
d="M506 -20q-96 0 -170.5 26t-124 68.5t-85 108t-55 134t-32.5 156.5l301 51q22 -130 59 -192t109 -62q52 0 76 31t24 74q0 47 -30 92.5t-77.5 85t-105.5 82t-116 92.5t-105.5 105.5t-77.5 131.5t-30 162q0 190 118.5 301t321.5 111q100 0 175.5 -31.5t126 -94.5t83 -141.5
t55.5 -187.5l-307 -73q-24 120 -56.5 173.5t-90.5 53.5q-39 0 -61.5 -24t-22.5 -66q0 -44 30 -87.5t77.5 -83.5t105.5 -82.5t116 -93.5t105.5 -108t77.5 -134.5t30 -164.5q0 -184 -122 -298.5t-322 -114.5z" />
    <glyph glyph-name="T" unicode="T" horiz-adv-x="888" 
d="M268 0v1217h-256v299h865v-299h-256v-1217h-353z" />
    <glyph glyph-name="U" unicode="U" horiz-adv-x="1038" 
d="M522 -16q-239 0 -346.5 120.5t-107.5 370.5v1041h350v-1024q0 -125 25.5 -170.5t86.5 -45.5t87 46t26 165v1029h328v-1037q0 -257 -104.5 -376t-344.5 -119z" />
    <glyph glyph-name="V" unicode="V" horiz-adv-x="999" 
d="M324 -6l-328 1522h348l98 -572q46 -266 74 -502h8q24 221 72 494l100 580h308l-328 -1522h-352z" />
    <glyph glyph-name="W" unicode="W" horiz-adv-x="1413" 
d="M264 -4l-264 1520h340l57 -443q46 -355 56 -493h8q32 281 63 493l62 443h280l62 -439q50 -338 65 -497h8q11 159 54 487l59 449h299l-264 -1520h-301l-137 895h-9l-137 -895h-301z" />
    <glyph glyph-name="X" unicode="X" horiz-adv-x="1021" 
d="M4 0l330 786l-295 730h358l135 -373l127 373h318l-295 -701l330 -815h-359l-170 438l-161 -438h-318z" />
    <glyph glyph-name="Y" unicode="Y" horiz-adv-x="983" 
d="M313 0v526l-331 990h356l164 -605h8l164 605h327l-335 -990v-526h-353z" />
    <glyph glyph-name="Z" unicode="Z" horiz-adv-x="923" 
d="M16 0v264l490 953h-451v299h836v-275l-488 -952h488v-289h-875z" />
    <glyph glyph-name="bracketleft" unicode="[" horiz-adv-x="669" 
d="M72 -410v1926h583v-252h-235v-1430h235v-244h-583z" />
    <glyph glyph-name="backslash" unicode="\" horiz-adv-x="946" 
d="M606 0l-614 1516h348l614 -1516h-348z" />
    <glyph glyph-name="bracketright" unicode="]" horiz-adv-x="669" 
d="M14 -410v244h236v1430h-236v252h586v-1926h-586z" />
    <glyph glyph-name="asciicircum" unicode="^" horiz-adv-x="872" 
d="M139 1196l185 332h227l182 -332h-194l-105 111l-102 -111h-193z" />
    <glyph glyph-name="underscore" unicode="_" horiz-adv-x="784" 
d="M-41 -319v245h866v-245h-866z" />
    <glyph glyph-name="grave" unicode="`" horiz-adv-x="825" 
d="M299 1198l-207 330h314l135 -330h-242z" />
    <glyph glyph-name="a" unicode="a" horiz-adv-x="884" 
d="M256 -10q-104 0 -170 71t-66 226q0 88 39 163t107 129t153 91t183 57v29q0 47 -13.5 64.5t-54.5 17.5q-51 0 -115 -32t-108 -69l-156 213q88 78 203.5 120t237.5 42q177 0 252 -82.5t75 -257.5v-506q0 -187 23 -266h-328q-16 56 -16 145q-87 -155 -246 -155zM406 258
q40 0 96 37v209q-160 -54 -160 -162q0 -39 17 -61.5t47 -22.5z" />
    <glyph glyph-name="b" unicode="b" horiz-adv-x="940" 
d="M627 -12q-147 0 -226 135v-123h-335v1513h335v-546q85 145 228 145q284 0 284 -563q0 -561 -286 -561zM489 258q47 0 65.5 60.5t18.5 228.5q0 164 -17.5 219t-68.5 55q-38 0 -86 -43v-481q2 -1 8 -5.5l8 -6t7.5 -5.5t8 -5.5t8 -4.5t8.5 -4t8.5 -3t10 -3t10 -1.5
t11.5 -0.5z" />
    <glyph glyph-name="c" unicode="c" horiz-adv-x="864" 
d="M446 -16q-91 0 -166.5 33t-133 99.5t-89.5 176.5t-32 254q0 146 33.5 256.5t92.5 177t135 99t167 32.5q95 0 165.5 -28t115.5 -83.5t71 -126t39 -165.5l-309 -45q-9 103 -27.5 147.5t-56.5 44.5q-35 0 -54 -24t-29 -91.5t-10 -193.5q0 -184 19 -251t72 -67q43 0 66 48
t32 161l299 -41q-11 -93 -39 -166t-75 -129.5t-119.5 -87t-166.5 -30.5z" />
    <glyph glyph-name="d" unicode="d" horiz-adv-x="940" 
d="M313 -12q-286 0 -286 559q0 290 75 427.5t211 137.5q72 0 130 -36.5t96 -92.5v533h335v-1250q0 -190 25 -266h-344q-5 21 -10.5 66t-5.5 53q-37 -56 -94.5 -93.5t-131.5 -37.5zM453 262q9 0 18.5 2t14.5 3.5t15 7t12 7t13.5 10.5t12.5 9v481q-46 41 -86 41q-35 0 -53 -23
t-25.5 -80.5t-7.5 -170.5q0 -169 18 -228t68 -59z" />
    <glyph glyph-name="e" unicode="e" horiz-adv-x="866" 
d="M455 -16q-198 0 -314 139.5t-116 423.5q0 146 32 256.5t89.5 177t131.5 99t164 32.5q205 0 302.5 -150t97.5 -425v-113h-498q3 -193 115 -193q49 0 81 36.5t54 103.5l252 -92q-49 -139 -148 -217t-243 -78zM346 637h189q0 127 -23 174t-70 47q-96 0 -96 -221z" />
    <glyph glyph-name="f" unicode="f" horiz-adv-x="622" 
d="M131 0v846h-119v250h119v94q0 60 6 103t26 88.5t56 74t99 46.5t151 18q98 0 147 -7v-262q-28 4 -61 4q-47 0 -68.5 -18.5t-21.5 -73.5v-67h147v-250h-147v-846h-334z" />
    <glyph glyph-name="g" unicode="g" horiz-adv-x="919" 
d="M705 1014q40 44 98.5 76t105.5 38v-303q-55 0 -100 -2q12 -53 12 -108q0 -193 -108.5 -295.5t-282.5 -102.5q-52 0 -106 13q-13 -16 -13 -31q0 -24 14 -33t56 -12l121 -8q147 -10 233 -47t121 -99.5t35 -162.5q0 -156 -140 -251.5t-370 -95.5q-198 0 -297.5 59.5
t-99.5 168.5q0 70 39.5 125.5t111.5 89.5q-92 53 -92 149q0 54 36.5 112.5t98.5 100.5q-143 109 -143 320q0 189 110.5 293t284.5 104t275 -98zM432 532q41 0 59.5 42t18.5 135q0 95 -17.5 132.5t-60.5 37.5q-44 0 -62 -38.5t-18 -131.5t19 -135t61 -42zM319 -6
q-28 -55 -28 -107q0 -59 35.5 -82.5t111.5 -23.5q70 0 110 29t40 81q0 47 -30 68t-114 27z" />
    <glyph glyph-name="h" unicode="h" horiz-adv-x="944" 
d="M66 0v1516h335v-553q39 57 114 103t159 46q102 0 156.5 -54t54.5 -194v-864h-336v743q0 72 -47 72q-41 0 -101 -43v-772h-335z" />
    <glyph glyph-name="i" unicode="i" horiz-adv-x="487" 
d="M76 1192v297h336v-297h-336zM76 0v1096h336v-1096h-336z" />
    <glyph glyph-name="j" unicode="j" horiz-adv-x="487" 
d="M76 1192v297h336v-297h-336zM72 -412q-22 0 -76.5 2.5t-58.5 3.5v254q12 -4 55 -4q84 0 84 95v1157h336v-1164q0 -86 -15.5 -146.5t-53.5 -106.5t-105 -68.5t-166 -22.5z" />
    <glyph glyph-name="k" unicode="k" horiz-adv-x="882" 
d="M66 0v1516h323v-840q21 86 66 192l90 228h315l-209 -406l230 -690h-334l-113 383l-45 -92v-291h-323z" />
    <glyph glyph-name="l" unicode="l" horiz-adv-x="487" 
d="M76 0v1516h336v-1516h-336z" />
    <glyph glyph-name="m" unicode="m" horiz-adv-x="1411" 
d="M66 0v1096h335v-133q38 56 113 102.5t152 46.5q89 0 137 -34t65 -117q42 59 118 105t151 46q109 0 162 -60t53 -196v-856h-336v743q0 37 -10 54.5t-37 17.5q-12 0 -25.5 -5t-21 -9t-24.5 -15.5t-21 -13.5v-772h-336v743q0 37 -10 54.5t-35 17.5q-35 0 -95 -43v-772h-335z
" />
    <glyph glyph-name="n" unicode="n" horiz-adv-x="944" 
d="M66 0v1096h335v-133q39 57 114 103t159 46q102 0 156.5 -54t54.5 -194v-864h-336v743q0 72 -47 72q-41 0 -101 -43v-772h-335z" />
    <glyph glyph-name="o" unicode="o" horiz-adv-x="909" 
d="M455 -14q-93 0 -169.5 33.5t-135.5 100.5t-92 177t-33 254q0 286 117.5 423.5t312.5 137.5q93 0 169 -32t135.5 -97.5t92.5 -175.5t33 -256q0 -144 -33 -254t-92.5 -177t-136 -100.5t-168.5 -33.5zM455 231q54 0 74 66t20 254q0 179 -19.5 242t-74.5 63q-37 0 -57 -23
t-30 -89.5t-10 -192.5q0 -179 21 -249.5t76 -70.5z" />
    <glyph glyph-name="p" unicode="p" horiz-adv-x="940" 
d="M66 -410v1506h335v-129q85 145 228 145q284 0 284 -563q0 -561 -286 -561q-147 0 -226 135v-533h-335zM489 258q47 0 65.5 60.5t18.5 228.5q0 164 -17.5 219t-68.5 55q-38 0 -86 -43v-481q2 -1 8 -5.5l8 -6t7.5 -5.5t8 -5.5t8 -4.5t8.5 -4t8.5 -3t10 -3t10 -1.5
t11.5 -0.5z" />
    <glyph glyph-name="q" unicode="q" horiz-adv-x="940" 
d="M539 -410v529q-37 -56 -94.5 -93.5t-131.5 -37.5q-286 0 -286 559q0 290 75 427.5t211 137.5q72 0 130 -36.5t96 -92.5v113h335v-1506h-335zM453 262q9 0 18.5 2t14.5 3.5t15 7t12 7t13.5 10.5t12.5 9v481q-46 41 -86 41q-35 0 -53 -23t-25.5 -80.5t-7.5 -170.5
q0 -169 18 -228t68 -59z" />
    <glyph glyph-name="r" unicode="r" horiz-adv-x="671" 
d="M66 0v1096h335v-172h2q34 81 92 134.5t142 53.5l27 -2v-315q-36 6 -54 6q-67 0 -123.5 -17t-85.5 -39v-745h-335z" />
    <glyph glyph-name="s" unicode="s" horiz-adv-x="839" 
d="M426 -18q-295 0 -424 278l240 113q34 -74 81.5 -112t96.5 -38q33 0 56.5 15.5t23.5 48.5q0 27 -25.5 50.5t-66 42.5t-89.5 41t-97.5 53t-89 70.5t-66 102t-25.5 139.5q0 69 24 126.5t62 94.5t87.5 63t98.5 37t97 11q143 0 239 -60.5t158 -195.5l-244 -117
q-54 121 -145 121q-27 0 -44.5 -15.5t-17.5 -43.5q0 -29 25.5 -53.5t66 -44.5t89.5 -42t97.5 -53t89 -70t66 -100.5t25.5 -138.5q0 -151 -105 -237t-284 -86z" />
    <glyph glyph-name="t" unicode="t" horiz-adv-x="665" 
d="M440 -8q-171 0 -243 58.5t-72 197.5v598h-117v250h117v370h334v-370h184v-250h-184v-492q0 -76 19.5 -97t78.5 -21q52 0 76 8v-238q-42 -14 -193 -14z" />
    <glyph glyph-name="u" unicode="u" horiz-adv-x="944" 
d="M270 -14q-103 0 -157 53.5t-54 193.5v863h334v-748q0 -72 49 -72q36 0 101 43v777h336v-1096h-336v135q-41 -57 -116 -103t-157 -46z" />
    <glyph glyph-name="v" unicode="v" horiz-adv-x="823" 
d="M231 -4l-243 1100h329l62 -379q36 -234 49 -365h8q15 150 49 365l62 379h289l-244 -1100h-361z" />
    <glyph glyph-name="w" unicode="w" horiz-adv-x="1179" 
d="M188 -4l-200 1100h313l47 -353q15 -105 29 -270h8q10 93 39 275l59 348h267l59 -359q13 -80 37 -262h8q2 22 31 262l47 359h260l-201 -1100h-293l-104 600h-8l-105 -600h-293z" />
    <glyph glyph-name="x" unicode="x" horiz-adv-x="843" 
d="M-4 0l264 563l-246 533h338l99 -258l81 258h297l-245 -521l264 -575h-338l-111 287l-106 -287h-297z" />
    <glyph glyph-name="y" unicode="y" horiz-adv-x="851" 
d="M205 -414q-141 0 -238 29l56 270q68 -14 116 -14q50 0 72 15.5t33 56.5l14 53l-272 1100h348l65 -459q15 -111 31 -289h8q18 185 35 287l74 461h319l-307 -1188q-43 -169 -121 -245.5t-233 -76.5z" />
    <glyph glyph-name="z" unicode="z" horiz-adv-x="788" 
d="M23 0v201l348 645h-316v250h695v-211l-351 -645h373v-240h-749z" />
    <glyph glyph-name="braceleft" unicode="{" horiz-adv-x="714" 
d="M477 -410q-148 0 -222.5 75t-74.5 212v359q0 67 -5 102t-23.5 56.5t-46 26.5t-82.5 5v254q38 0 61.5 2t42.5 10.5t28.5 20t15.5 35t7.5 50.5t1.5 72v359q0 139 76.5 213t245.5 74h203v-252h-62q-64 0 -88.5 -32.5t-24.5 -107.5v-270q0 -145 -36.5 -207.5t-124.5 -91.5v-4
q88 -29 124.5 -91.5t36.5 -207.5v-293q0 -68 25.5 -96.5t87.5 -28.5h62v-244h-228z" />
    <glyph glyph-name="bar" unicode="|" horiz-adv-x="632" 
d="M143 -410v1926h346v-1926h-346z" />
    <glyph glyph-name="braceright" unicode="}" horiz-adv-x="714" 
d="M8 -410v244h62q62 0 87 28.5t25 96.5v293q0 144 37 207t125 92v4q-88 29 -125 92t-37 207v270q0 75 -24 107.5t-88 32.5h-62v252h203q169 0 245 -74t76 -213v-359q0 -45 1.5 -72t8 -50.5t16 -35t28.5 -20t42.5 -10.5t61.5 -2v-254q-55 0 -82.5 -5.5t-46.5 -26.5t-24 -56
t-5 -102v-359q0 -137 -74 -212t-222 -75h-228z" />
    <glyph glyph-name="asciitilde" unicode="~" horiz-adv-x="845" 
d="M553 727q-43 0 -82.5 18t-63.5 39.5t-51.5 39.5t-48.5 18q-61 0 -61 -111h-160q0 367 211 367q43 0 82.5 -18t63.5 -39.5t51.5 -39.5t48.5 -18q61 0 61 111h160q0 -367 -211 -367z" />
    <glyph glyph-name="nbspace" unicode="&#xa0;" horiz-adv-x="190" 
 />
    <glyph glyph-name="exclamdown" unicode="&#xa1;" horiz-adv-x="579" 
d="M102 1194v322h369v-322h-369zM90 0l45 1083h301l45 -1083h-391z" />
    <glyph glyph-name="cent" unicode="&#xa2;" horiz-adv-x="864" 
d="M313 1096v209h260v-201q123 -31 186 -129.5t85 -259.5l-309 -45q-9 102 -27.5 147t-56.5 45q-35 0 -54 -25.5t-29 -94.5t-10 -195q0 -185 19.5 -254.5t71.5 -69.5q44 0 66 43.5t32 165.5l299 -41q-38 -329 -273 -397v-258h-260v262q-134 45 -211 182.5t-77 366.5
t77.5 366.5t210.5 182.5z" />
    <glyph glyph-name="sterling" unicode="&#xa3;" horiz-adv-x="1155" 
d="M369 645h-252v225h149q-69 156 -69 273q0 181 106.5 287t292.5 106q190 0 285 -101t110 -325l-311 -31q-6 96 -24.5 138.5t-61.5 42.5q-72 0 -72 -111q0 -45 12 -96.5t26 -87.5t40 -95h272v-225h-188q25 -102 25 -188q0 -101 -31 -189q38 -18 74 -18q32 0 47 18.5
t21.5 68t6.5 152.5h310q0 -265 -80.5 -386t-270.5 -121q-112 0 -227 100q-114 -100 -272 -100q-80 0 -144.5 25.5t-107.5 84.5t-43 144q0 129 75 195.5t199 66.5q78 0 152 -41q-3 80 -49 188zM391 258q-57 57 -106 57q-27 0 -43.5 -18.5t-16.5 -50.5q0 -33 17 -51.5
t47 -18.5q72 0 102 82z" />
    <glyph glyph-name="currency" unicode="&#xa4;" 
d="M612 -16q-200 0 -312 115t-146 390h-127v226h112v43v30h-112v226h127q11 92 31 167t45.5 128.5t59.5 93.5t69.5 65t79 40t84.5 20.5t89 5.5q217 0 320 -122t115 -396l-302 -21q-12 156 -35.5 203t-88.5 47q-33 0 -53.5 -7.5t-40 -30.5t-30.5 -70t-16 -123h226v-226h-234
v-32v-41h234v-226h-226q6 -65 16.5 -109.5t21 -67.5t28.5 -35.5t31 -14.5t36 -2q51 0 75.5 16t40 69t22.5 165l307 -18q-4 -86 -16 -153t-42 -136.5t-77 -115t-126.5 -74.5t-185.5 -29z" />
    <glyph glyph-name="yen" unicode="&#xa5;" horiz-adv-x="1003" 
d="M326 0v145h-263v226h263v71h-263v226h230l-293 848h356l160 -590h4l156 590h328l-297 -848h233v-226h-264v-71h264v-226h-264v-145h-350z" />
    <glyph glyph-name="brokenbar" unicode="&#xa6;" horiz-adv-x="632" 
d="M143 678v838h346v-838h-346zM143 -410v838h346v-838h-346z" />
    <glyph glyph-name="section" unicode="&#xa7;" horiz-adv-x="1005" 
d="M195 924q-76 111 -76 237q0 78 24 146t71.5 122t125.5 85.5t178 31.5q193 0 291.5 -101t122.5 -312l-297 -52q-23 195 -119 195q-78 0 -78 -92q0 -33 14.5 -62.5t47.5 -59.5t60 -50t78 -54q3 -2 5 -3.5t5 -3t5 -3.5q53 -35 87.5 -60t79.5 -67.5t71.5 -83t45.5 -98
t19 -121.5q0 -94 -38.5 -179t-110.5 -146q74 -104 74 -234q0 -78 -23.5 -146t-69.5 -122.5t-123.5 -85.5t-177.5 -31q-192 0 -287.5 101t-119.5 313l297 51q23 -195 112 -195q40 0 56 24t16 69q0 56 -42 101.5t-126 102.5q-129 86 -174 124q-158 135 -169 309q-1 14 -1 28
q0 92 38 176.5t108 145.5zM602 383q37 40 37 88q0 59 -43 107.5t-129 109.5q-10 8 -66 47q-34 -40 -34 -86q0 -60 44 -109.5t132 -113.5q22 -17 59 -43z" />
    <glyph glyph-name="dieresis" unicode="&#xa8;" horiz-adv-x="849" 
d="M477 1194v307h273v-307h-273zM100 1194v307h273v-307h-273z" />
    <glyph glyph-name="copyright" unicode="&#xa9;" horiz-adv-x="1204" 
d="M600 -29q-168 0 -297 102.5t-197.5 280.5t-68.5 400t70.5 401.5t200.5 284t296 104.5q168 0 297 -102.5t197.5 -280t68.5 -399.5t-70.5 -402t-200.5 -284.5t-296 -104.5zM604 115q186 0 295 177.5t109 461.5q0 186 -49 332.5t-142 230.5t-217 84t-216 -82t-139.5 -226
t-47.5 -331q0 -186 49 -332.5t142 -230.5t216 -84zM608 317q-130 0 -200 115t-70 332q0 219 70 334.5t204 115.5q205 0 240 -303l-180 -24q-4 26 -6.5 40t-7.5 32t-11.5 27t-17.5 15.5t-25 6.5q-67 0 -67 -244q0 -236 67 -236q30 0 46 28.5t22 96.5l184 -24
q-22 -150 -78.5 -231t-169.5 -81z" />
    <glyph glyph-name="ordfeminine" unicode="&#xaa;" horiz-adv-x="716" 
d="M238 741q-75 0 -126 52t-51 161q0 229 330 308v34q0 22 -1.5 33t-9 19t-22.5 8q-63 0 -100 -72l-166 74q59 186 289 186q126 0 186 -57.5t60 -186.5v-352q0 -133 16 -190h-237q-13 40 -15 65q-61 -82 -153 -82zM332 934q27 0 59 20v156q-100 -29 -100 -123q0 -53 41 -53z
" />
    <glyph glyph-name="guillemotleft" unicode="&#xab;" horiz-adv-x="999" 
d="M666 0l-215 543l215 540h307l-209 -540l209 -543h-307zM236 0l-216 543l216 540h307l-209 -540l209 -543h-307z" />
    <glyph glyph-name="registered" unicode="&#xae;" horiz-adv-x="1204" 
d="M600 -29q-168 0 -297 102.5t-197.5 280.5t-68.5 400t70.5 401.5t200.5 284t296 104.5q168 0 297 -102.5t197.5 -280t68.5 -399.5t-70.5 -402t-200.5 -284.5t-296 -104.5zM604 96q123 0 217 84.5t144.5 233.5t50.5 340q0 190 -51.5 341.5t-146.5 237.5t-218 86t-217 -84
t-144.5 -233t-50.5 -340q0 -190 51.5 -341.5t146.5 -238t218 -86.5zM360 350v850h248q124 0 192 -71.5t68 -219.5q0 -179 -88 -254l94 -305h-202l-82 273h-27v-273h-203zM563 797h35q40 0 58 24t18 80q0 57 -17.5 80t-58.5 23h-35v-207z" />
    <glyph glyph-name="macron" unicode="&#xaf;" horiz-adv-x="825" 
d="M102 1221v252h621v-252h-621z" />
    <glyph glyph-name="degree" unicode="&#xb0;" horiz-adv-x="585" 
d="M293 944q-114 0 -183 83t-69 216t69 216t183 83q115 0 183.5 -82t68.5 -215t-69 -217t-183 -84zM293 1102q65 0 65 141q0 146 -65 146q-66 0 -66 -146q0 -141 66 -141z" />
    <glyph glyph-name="twosuperior" unicode="&#xb2;" horiz-adv-x="714" 
d="M68 580v36q0 94 18 170t46.5 124t63.5 86.5t69.5 68.5t63 59.5t46.5 68.5t18 87q0 45 -31 45q-27 0 -45.5 -26.5t-35.5 -112.5l-220 41q32 151 105 234t205 83q131 0 199.5 -67.5t68.5 -194.5q0 -76 -28.5 -141.5t-70 -111.5t-84.5 -85t-77 -78.5t-41 -74.5h303v-211
h-573z" />
    <glyph glyph-name="threesuperior" unicode="&#xb3;" horiz-adv-x="708" 
d="M346 561q-138 0 -203.5 70t-93.5 215l207 53q14 -68 33 -101.5t47 -33.5q33 0 48 20.5t15 65.5q0 84 -26 111.5t-103 27.5h-63v178h74q60 0 84 27.5t24 89.5q0 23 -11.5 37t-29.5 14q-29 0 -49 -27t-33 -85l-198 55q28 128 101.5 197t188.5 69q141 0 203 -61.5t62 -184.5
q0 -161 -119 -215q72 -29 104.5 -86t32.5 -149q0 -132 -78.5 -209.5t-216.5 -77.5z" />
    <glyph glyph-name="acute" unicode="&#xb4;" horiz-adv-x="825" 
d="M246 1198l135 330h313l-207 -330h-241z" />
    <glyph glyph-name="mu" unicode="&#xb5;" horiz-adv-x="950" 
d="M66 -410v1506h333v-762q0 -72 50 -72q35 0 100 43v791h336v-1096h-336v127q-44 -63 -115 -98q-13 -7 -35 -15v-424h-333z" />
    <glyph glyph-name="paragraph" unicode="&#xb6;" horiz-adv-x="1138" 
d="M408 -410v1086q-165 2 -267 111t-102 305q0 181 100 302.5t250 121.5h678v-1926h-289v1641h-84v-1641h-286z" />
    <glyph glyph-name="periodcentered" unicode="&#xb7;" horiz-adv-x="604" 
d="M94 471v354h377v-354h-377z" />
    <glyph glyph-name="cedilla" unicode="&#xb8;" horiz-adv-x="825" 
d="M401 -414q-148 0 -272 62l53 121q36 -19 94.5 -34.5t110.5 -15.5q70 0 70 50q0 43 -47 43q-34 0 -60 -29l-96 41l55 178h142l-25 -88q33 29 98 29q59 0 96 -38t37 -116q0 -85 -66 -144t-190 -59z" />
    <glyph glyph-name="onesuperior" unicode="&#xb9;" horiz-adv-x="632" 
d="M88 569v211h115v482q-51 -23 -113 -23v217q82 3 127 60h236v-736h104v-211h-469z" />
    <glyph glyph-name="ordmasculine" unicode="&#xba;" horiz-adv-x="710" 
d="M356 741q-139 0 -218 103.5t-79 298.5t79 298t218 103q138 0 216.5 -103t78.5 -298t-78.5 -298.5t-216.5 -103.5zM356 940q21 0 32 14t17.5 58.5t6.5 130.5q0 118 -12.5 157t-43.5 39q-22 0 -33.5 -13t-17.5 -55.5t-6 -127.5q0 -121 12.5 -162t44.5 -41z" />
    <glyph glyph-name="guillemotright" unicode="&#xbb;" horiz-adv-x="999" 
d="M457 0l209 543l-209 540h307l215 -540l-215 -543h-307zM27 0l209 543l-209 540h307l215 -540l-215 -543h-307z" />
    <glyph glyph-name="onequarter" unicode="&#xbc;" horiz-adv-x="1660" 
d="M88 569v211h115v482q-51 -23 -113 -23v217q82 3 127 60h236v-736h104v-211h-469zM403 0l631 1516h283l-631 -1516h-283zM1300 0v180h-309v174l289 596h258v-567h92v-203h-92v-180h-238zM1202 383h107v207h-11z" />
    <glyph glyph-name="onehalf" unicode="&#xbd;" horiz-adv-x="1722" 
d="M88 569v211h115v482q-51 -23 -113 -23v217q82 3 127 60h236v-736h104v-211h-469zM403 0l631 1516h283l-631 -1516h-283zM1087 0v37q0 94 18 169.5t46.5 123.5t63.5 87t70 68.5t63.5 59t46.5 68.5t18 87q0 45 -31 45q-27 0 -46 -26.5t-36 -112.5l-219 41q32 151 105 234.5
t205 83.5q131 0 199.5 -68t68.5 -195q0 -76 -28.5 -141.5t-70 -111.5t-84.5 -85t-77 -78.5t-41 -74.5h303v-211h-574z" />
    <glyph glyph-name="threequarters" unicode="&#xbe;" horiz-adv-x="1695" 
d="M346 561q-138 0 -203.5 70t-93.5 215l207 53q14 -68 33 -101.5t47 -33.5q33 0 48 20.5t15 65.5q0 84 -26 111.5t-103 27.5h-63v178h74q60 0 84 27.5t24 89.5q0 23 -11.5 37t-29.5 14q-29 0 -49 -27t-33 -85l-198 55q28 128 101.5 197t188.5 69q141 0 203 -61.5t62 -184.5
q0 -161 -119 -215q72 -29 104.5 -86t32.5 -149q0 -132 -78.5 -209.5t-216.5 -77.5zM438 0l631 1516h283l-631 -1516h-283zM1335 0v180h-309v174l289 596h258v-567h92v-203h-92v-180h-238zM1237 383h106v207h-10z" />
    <glyph glyph-name="questiondown" unicode="&#xbf;" horiz-adv-x="882" 
d="M297 1194v322h369v-322h-369zM412 -16q-182 0 -283.5 95t-101.5 273q0 110 57 210.5t154 207.5q61 67 76.5 126.5t15.5 188.5h295q8 -144 -21.5 -232t-93.5 -173q-12 -16 -39.5 -53t-39 -53t-30.5 -46.5t-27 -50t-15 -45.5t-7 -51q0 -109 80 -109q52 0 81.5 49t45.5 142
l301 -49q-72 -430 -448 -430z" />
    <glyph glyph-name="Agrave" unicode="&#xc0;" horiz-adv-x="999" 
d="M346 285l-47 -285h-303l328 1522h352l328 -1522h-345l-47 285h-266zM571 522l-8 49q-6 32 -20.5 113.5t-21 122.5t-17.5 120t-21 167h-8q-9 -88 -19.5 -166t-17 -118t-21 -118.5t-20.5 -111.5l-10 -58h184zM408 1608l-207 330h314l135 -330h-242z" />
    <glyph glyph-name="Aacute" unicode="&#xc1;" horiz-adv-x="999" 
d="M346 285l-47 -285h-303l328 1522h352l328 -1522h-345l-47 285h-266zM571 522l-8 49q-6 32 -20.5 113.5t-21 122.5t-17.5 120t-21 167h-8q-9 -88 -19.5 -166t-17 -118t-21 -118.5t-20.5 -111.5l-10 -58h184zM375 1608l135 330h313l-207 -330h-241z" />
    <glyph glyph-name="Acircumflex" unicode="&#xc2;" horiz-adv-x="999" 
d="M346 285l-47 -285h-303l328 1522h352l328 -1522h-345l-47 285h-266zM571 522l-8 49q-6 32 -20.5 113.5t-21 122.5t-17.5 120t-21 167h-8q-9 -88 -19.5 -166t-17 -118t-21 -118.5t-20.5 -111.5l-10 -58h184zM202 1606l185 332h227l182 -332h-194l-105 117l-102 -117h-193z
" />
    <glyph glyph-name="Atilde" unicode="&#xc3;" horiz-adv-x="999" 
d="M346 285l-47 -285h-303l328 1522h352l328 -1522h-345l-47 285h-266zM571 522l-8 49q-6 32 -20.5 113.5t-21 122.5t-17.5 120t-21 167h-8q-9 -88 -19.5 -166t-17 -118t-21 -118.5t-20.5 -111.5l-10 -58h184zM631 1571q-43 0 -82.5 18t-63.5 39.5t-51.5 39.5t-48.5 18
q-61 0 -61 -111h-160q0 367 211 367q43 0 82.5 -18t63.5 -39.5t51.5 -39.5t48.5 -18q61 0 61 111h160q0 -367 -211 -367z" />
    <glyph glyph-name="Adieresis" unicode="&#xc4;" horiz-adv-x="999" 
d="M346 285l-47 -285h-303l328 1522h352l328 -1522h-345l-47 285h-266zM571 522l-8 49q-6 32 -20.5 113.5t-21 122.5t-17.5 120t-21 167h-8q-9 -88 -19.5 -166t-17 -118t-21 -118.5t-20.5 -111.5l-10 -58h184zM553 1604v307h273v-307h-273zM176 1604v307h273v-307h-273z" />
    <glyph glyph-name="Aring" unicode="&#xc5;" horiz-adv-x="999" 
d="M346 285l-47 -285h-303l323 1493q-30 55 -30 131q0 102 58 172t153 70t153 -70t58 -172q0 -74 -31 -131l324 -1493h-345l-47 285h-266zM500 1516q51 0 51 102t-51 102t-51 -102t51 -102zM571 522l-8 49q-6 32 -20.5 113.5t-21 122.5t-17.5 120t-21 167h-8
q-9 -88 -19.5 -166t-17 -118t-21 -118.5t-20.5 -111.5l-10 -58h184z" />
    <glyph glyph-name="AE" unicode="&#xc6;" horiz-adv-x="1484" 
d="M-4 0l510 1516h934v-299h-398v-285h283v-279h-283v-364h412v-289h-762v336h-237l-121 -336h-338zM541 580h151v550h-4z" />
    <glyph glyph-name="Ccedilla" unicode="&#xc7;" horiz-adv-x="1026" 
d="M424 -14q-389 74 -389 772q0 786 495 786q233 0 339 -140t120 -446l-332 -28q-10 180 -36.5 241.5t-90.5 61.5q-81 0 -110 -107t-29 -368q0 -263 30.5 -374.5t110.5 -111.5q46 0 71.5 26t41.5 93.5t25 196.5l331 -31q-11 -97 -29 -176.5t-52 -154.5t-80.5 -127
t-117 -85.5t-159.5 -38.5l-16 -61q33 29 98 29q59 0 96 -38t37 -116q0 -85 -66 -144t-190 -59q-148 0 -272 62l53 121q36 -19 94.5 -34.5t110.5 -15.5q70 0 70 50q0 43 -48 43q-33 0 -59 -29l-96 41z" />
    <glyph glyph-name="Egrave" unicode="&#xc8;" horiz-adv-x="872" 
d="M80 0v1516h749v-299h-397v-285h283v-279h-283v-364h412v-289h-764zM324 1608l-207 330h314l135 -330h-242z" />
    <glyph glyph-name="Eacute" unicode="&#xc9;" horiz-adv-x="872" 
d="M80 0v1516h749v-299h-397v-285h283v-279h-283v-364h412v-289h-764zM271 1608l135 330h313l-207 -330h-241z" />
    <glyph glyph-name="Ecircumflex" unicode="&#xca;" horiz-adv-x="872" 
d="M80 0v1516h749v-299h-397v-285h283v-279h-283v-364h412v-289h-764zM139 1606l185 332h227l182 -332h-194l-105 117l-102 -117h-193z" />
    <glyph glyph-name="Edieresis" unicode="&#xcb;" horiz-adv-x="872" 
d="M80 0v1516h749v-299h-397v-285h283v-279h-283v-364h412v-289h-764zM489 1604v307h273v-307h-273zM112 1604v307h273v-307h-273z" />
    <glyph glyph-name="Igrave" unicode="&#xcc;" horiz-adv-x="532" 
d="M90 0v1516h352v-1516h-352zM150 1608l-207 329h313l135 -329h-241z" />
    <glyph glyph-name="Iacute" unicode="&#xcd;" horiz-adv-x="532" 
d="M90 0v1516h352v-1516h-352zM137 1608l135 330h313l-207 -330h-241z" />
    <glyph glyph-name="Icircumflex" unicode="&#xce;" horiz-adv-x="532" 
d="M90 0v1516h352v-1516h-352zM-31 1606l185 331h227l182 -331h-194l-105 116l-102 -116h-193z" />
    <glyph glyph-name="Idieresis" unicode="&#xcf;" horiz-adv-x="532" 
d="M90 0v1516h352v-1516h-352zM317 1604v307h273v-307h-273zM-59 1604v307h272v-307h-272z" />
    <glyph glyph-name="Eth" unicode="&#xd0;" horiz-adv-x="1079" 
d="M80 0v655h-74v273h74v588h360q80 0 144.5 -8t129 -29.5t113.5 -57.5t91.5 -94t70 -136.5t43 -187.5t15.5 -245q0 -135 -16 -243.5t-43.5 -187t-70.5 -136.5t-92 -94.5t-113.5 -58.5t-128.5 -30t-143 -8h-360zM424 293h59q87 0 132 42t63 139t18 284q0 190 -18.5 285.5
t-63 134.5t-133.5 39h-57v-289h143v-273h-143v-362z" />
    <glyph glyph-name="Ntilde" unicode="&#xd1;" 
d="M80 0v1516h362l193 -525q72 -212 96 -301h8v826h273v-1516h-299l-250 623q-74 199 -103 301h-8v-924h-272zM680 1571q-43 0 -82.5 18t-63.5 39.5t-51.5 39.5t-48.5 18q-61 0 -61 -111h-160q0 367 211 367q43 0 82.5 -18t63.5 -39.5t51.5 -39.5t48.5 -18q61 0 61 111h160
q0 -367 -211 -367z" />
    <glyph glyph-name="Ograve" unicode="&#xd2;" 
d="M547 -16q-116 0 -207.5 43t-161 133t-106.5 241t-37 357t37 357.5t106.5 242t161 133.5t207.5 43q115 0 206 -43t160.5 -133.5t106.5 -242.5t37 -357q0 -165 -24.5 -295.5t-68.5 -219.5t-108.5 -147.5t-140.5 -85t-168 -26.5zM547 285q86 0 119.5 110.5t33.5 362.5
q0 250 -33.5 357.5t-119.5 107.5q-87 0 -121.5 -107.5t-34.5 -357.5q0 -252 34.5 -362.5t121.5 -110.5zM432 1608l-207 330h314l135 -330h-242z" />
    <glyph glyph-name="Oacute" unicode="&#xd3;" 
d="M547 -16q-116 0 -207.5 43t-161 133t-106.5 241t-37 357t37 357.5t106.5 242t161 133.5t207.5 43q115 0 206 -43t160.5 -133.5t106.5 -242.5t37 -357q0 -165 -24.5 -295.5t-68.5 -219.5t-108.5 -147.5t-140.5 -85t-168 -26.5zM547 285q86 0 119.5 110.5t33.5 362.5
q0 250 -33.5 357.5t-119.5 107.5q-87 0 -121.5 -107.5t-34.5 -357.5q0 -252 34.5 -362.5t121.5 -110.5zM379 1608l135 330h313l-207 -330h-241z" />
    <glyph glyph-name="Ocircumflex" unicode="&#xd4;" 
d="M547 -16q-116 0 -207.5 43t-161 133t-106.5 241t-37 357t37 357.5t106.5 242t161 133.5t207.5 43q115 0 206 -43t160.5 -133.5t106.5 -242.5t37 -357q0 -165 -24.5 -295.5t-68.5 -219.5t-108.5 -147.5t-140.5 -85t-168 -26.5zM547 285q86 0 119.5 110.5t33.5 362.5
q0 250 -33.5 357.5t-119.5 107.5q-87 0 -121.5 -107.5t-34.5 -357.5q0 -252 34.5 -362.5t121.5 -110.5zM248 1606l185 332h227l182 -332h-194l-105 117l-102 -117h-193z" />
    <glyph glyph-name="Otilde" unicode="&#xd5;" 
d="M547 -16q-116 0 -207.5 43t-161 133t-106.5 241t-37 357t37 357.5t106.5 242t161 133.5t207.5 43q115 0 206 -43t160.5 -133.5t106.5 -242.5t37 -357q0 -165 -24.5 -295.5t-68.5 -219.5t-108.5 -147.5t-140.5 -85t-168 -26.5zM547 285q86 0 119.5 110.5t33.5 362.5
q0 250 -33.5 357.5t-119.5 107.5q-87 0 -121.5 -107.5t-34.5 -357.5q0 -252 34.5 -362.5t121.5 -110.5zM676 1571q-43 0 -82.5 18t-63.5 39.5t-51.5 39.5t-48.5 18q-61 0 -61 -111h-160q0 367 211 367q43 0 82.5 -18t63.5 -39.5t51.5 -39.5t48.5 -18q61 0 61 111h160
q0 -367 -211 -367z" />
    <glyph glyph-name="Odieresis" unicode="&#xd6;" 
d="M547 -16q-116 0 -207.5 43t-161 133t-106.5 241t-37 357t37 357.5t106.5 242t161 133.5t207.5 43q115 0 206 -43t160.5 -133.5t106.5 -242.5t37 -357q0 -165 -24.5 -295.5t-68.5 -219.5t-108.5 -147.5t-140.5 -85t-168 -26.5zM547 285q86 0 119.5 110.5t33.5 362.5
q0 250 -33.5 357.5t-119.5 107.5q-87 0 -121.5 -107.5t-34.5 -357.5q0 -252 34.5 -362.5t121.5 -110.5zM598 1604v307h273v-307h-273zM221 1604v307h273v-307h-273z" />
    <glyph glyph-name="multiply" unicode="&#xd7;" horiz-adv-x="993" 
d="M684 686l231 -231l-186 -187l-231 232l-234 -234l-186 187l231 233l-231 232l188 186l232 -232l229 232l186 -189z" />
    <glyph glyph-name="Oslash" unicode="&#xd8;" 
d="M952 1294q105 -196 105 -536q0 -165 -24.5 -295.5t-68.5 -219.5t-108.5 -147.5t-140.5 -85t-168 -26.5q-152 0 -262 71l-101 -188l-186 96l139 260q-102 190 -102 535q0 206 37 357.5t106.5 242t161 133.5t207.5 43q149 0 258 -72l102 187l185 -99zM381 649l274 506
q-40 72 -108 72q-89 0 -128.5 -111.5t-39.5 -357.5q0 -76 2 -109zM711 870l-277 -512q39 -77 113 -77q87 0 126.5 115.5t39.5 361.5q0 77 -2 112z" />
    <glyph glyph-name="Ugrave" unicode="&#xd9;" horiz-adv-x="1038" 
d="M522 -16q-239 0 -346.5 120.5t-107.5 370.5v1041h350v-1024q0 -125 25.5 -170.5t86.5 -45.5t87 46t26 165v1029h328v-1037q0 -257 -104.5 -376t-344.5 -119zM414 1608l-207 330h314l135 -330h-242z" />
    <glyph glyph-name="Uacute" unicode="&#xda;" horiz-adv-x="1038" 
d="M522 -16q-239 0 -346.5 120.5t-107.5 370.5v1041h350v-1024q0 -125 25.5 -170.5t86.5 -45.5t87 46t26 165v1029h328v-1037q0 -257 -104.5 -376t-344.5 -119zM361 1608l135 330h313l-207 -330h-241z" />
    <glyph glyph-name="Ucircumflex" unicode="&#xdb;" horiz-adv-x="1038" 
d="M522 -16q-239 0 -346.5 120.5t-107.5 370.5v1041h350v-1024q0 -125 25.5 -170.5t86.5 -45.5t87 46t26 165v1029h328v-1037q0 -257 -104.5 -376t-344.5 -119zM229 1606l185 332h227l182 -332h-194l-105 117l-102 -117h-193z" />
    <glyph glyph-name="Udieresis" unicode="&#xdc;" horiz-adv-x="1038" 
d="M522 -16q-239 0 -346.5 120.5t-107.5 370.5v1041h350v-1024q0 -125 25.5 -170.5t86.5 -45.5t87 46t26 165v1029h328v-1037q0 -257 -104.5 -376t-344.5 -119zM579 1604v307h273v-307h-273zM202 1604v307h273v-307h-273z" />
    <glyph glyph-name="Yacute" unicode="&#xdd;" horiz-adv-x="983" 
d="M313 0v526l-331 990h356l164 -605h8l164 605h327l-335 -990v-526h-353zM326 1608l135 330h313l-207 -330h-241z" />
    <glyph glyph-name="Thorn" unicode="&#xde;" horiz-adv-x="1011" 
d="M80 0v1516h352v-191h62q56 0 103.5 -5t98.5 -20t92 -39t79 -64t63 -93.5t40 -129.5t15 -169q0 -101 -16 -182.5t-42.5 -136.5t-66.5 -95t-80.5 -62.5t-94 -35.5t-97.5 -17t-99 -4h-57v-272h-352zM432 557h62q52 0 79.5 16.5t42.5 69.5t15 156q0 74 -7.5 119t-26 68.5
t-42 31.5t-63.5 8h-60v-469z" />
    <glyph glyph-name="germandbls" unicode="&#xdf;" horiz-adv-x="1050" 
d="M631 -10q-81 0 -174 22l51 271q45 -9 63 -9q131 0 131 158q0 118 -51.5 179t-167.5 83v211q72 12 110 70t38 147q0 121 -101 121q-57 0 -81.5 -45t-24.5 -151v-1047h-336v1038q0 235 115 356.5t342 121.5q201 0 300 -97.5t99 -259.5q0 -106 -52.5 -197t-143.5 -131
q118 -29 196 -137t78 -270q0 -223 -105 -328.5t-286 -105.5z" />
    <glyph glyph-name="agrave" unicode="&#xe0;" horiz-adv-x="884" 
d="M256 -10q-104 0 -170 71t-66 226q0 88 39 163t107 129t153 91t183 57v29q0 47 -13.5 64.5t-54.5 17.5q-51 0 -115 -32t-108 -69l-156 213q88 78 203.5 120t237.5 42q177 0 252 -82.5t75 -257.5v-506q0 -187 23 -266h-328q-16 56 -16 145q-87 -155 -246 -155zM406 258
q40 0 96 37v209q-160 -54 -160 -162q0 -39 17 -61.5t47 -22.5zM330 1198l-207 330h314l135 -330h-242z" />
    <glyph glyph-name="aacute" unicode="&#xe1;" horiz-adv-x="884" 
d="M256 -10q-104 0 -170 71t-66 226q0 88 39 163t107 129t153 91t183 57v29q0 47 -13.5 64.5t-54.5 17.5q-51 0 -115 -32t-108 -69l-156 213q88 78 203.5 120t237.5 42q177 0 252 -82.5t75 -257.5v-506q0 -187 23 -266h-328q-16 56 -16 145q-87 -155 -246 -155zM406 258
q40 0 96 37v209q-160 -54 -160 -162q0 -39 17 -61.5t47 -22.5zM277 1198l135 330h313l-207 -330h-241z" />
    <glyph glyph-name="acircumflex" unicode="&#xe2;" horiz-adv-x="884" 
d="M256 -10q-104 0 -170 71t-66 226q0 88 39 163t107 129t153 91t183 57v29q0 47 -13.5 64.5t-54.5 17.5q-51 0 -115 -32t-108 -69l-156 213q88 78 203.5 120t237.5 42q177 0 252 -82.5t75 -257.5v-506q0 -187 23 -266h-328q-16 56 -16 145q-87 -155 -246 -155zM406 258
q40 0 96 37v209q-160 -54 -160 -162q0 -39 17 -61.5t47 -22.5zM145 1196l185 332h227l182 -332h-194l-105 117l-102 -117h-193z" />
    <glyph glyph-name="atilde" unicode="&#xe3;" horiz-adv-x="884" 
d="M256 -10q-104 0 -170 71t-66 226q0 88 39 163t107 129t153 91t183 57v29q0 47 -13.5 64.5t-54.5 17.5q-51 0 -115 -32t-108 -69l-156 213q88 78 203.5 120t237.5 42q177 0 252 -82.5t75 -257.5v-506q0 -187 23 -266h-328q-16 56 -16 145q-87 -155 -246 -155zM406 258
q40 0 96 37v209q-160 -54 -160 -162q0 -39 17 -61.5t47 -22.5zM573 1161q-43 0 -82.5 18t-63.5 39.5t-51.5 39.5t-48.5 18q-61 0 -61 -111h-160q0 367 211 367q43 0 82.5 -18t63.5 -39.5t51.5 -39.5t48.5 -18q61 0 61 111h160q0 -367 -211 -367z" />
    <glyph glyph-name="adieresis" unicode="&#xe4;" horiz-adv-x="884" 
d="M256 -10q-104 0 -170 71t-66 226q0 88 39 163t107 129t153 91t183 57v29q0 47 -13.5 64.5t-54.5 17.5q-51 0 -115 -32t-108 -69l-156 213q88 78 203.5 120t237.5 42q177 0 252 -82.5t75 -257.5v-506q0 -187 23 -266h-328q-16 56 -16 145q-87 -155 -246 -155zM406 258
q40 0 96 37v209q-160 -54 -160 -162q0 -39 17 -61.5t47 -22.5zM495 1194v307h273v-307h-273zM118 1194v307h273v-307h-273z" />
    <glyph glyph-name="aring" unicode="&#xe5;" horiz-adv-x="884" 
d="M256 -10q-104 0 -170 71t-66 226q0 88 39 163t107 129t153 91t183 57v29q0 47 -13.5 64.5t-54.5 17.5q-51 0 -115 -32t-108 -69l-156 213q88 78 203.5 120t237.5 42q177 0 252 -82.5t75 -257.5v-506q0 -187 23 -266h-328q-16 56 -16 145q-87 -155 -246 -155zM406 258
q40 0 96 37v209q-160 -54 -160 -162q0 -39 17 -61.5t47 -22.5zM442 1149q-95 0 -153 70t-58 172t58 171.5t153 69.5t153 -69.5t58 -171.5t-58 -172t-153 -70zM442 1282q51 0 51 102q0 103 -51 103t-51 -103q0 -102 51 -102z" />
    <glyph glyph-name="ae" unicode="&#xe6;" horiz-adv-x="1337" 
d="M584 168q-61 -87 -139 -130.5t-189 -43.5q-104 0 -170 71t-66 226q0 88 39 162.5t107 127.5t153 89.5t183 56.5v29q0 47 -13.5 64.5t-54.5 17.5q-51 0 -115 -32t-108 -69l-156 213q88 78 203.5 120t237.5 42q149 0 194 -98q34 49 92.5 73.5t126.5 24.5q205 0 302.5 -150
t97.5 -425v-113h-498q3 -193 115 -193q49 0 81 36.5t54 103.5l252 -92q-49 -139 -148 -217t-243 -78q-229 0 -338 184zM813 637h188q0 127 -22.5 174t-69.5 47q-96 0 -96 -221zM502 504q-160 -51 -160 -158q0 -39 17 -61.5t47 -22.5q57 0 124 39q-21 93 -26 172q0 5 -1 15.5
t-1 15.5z" />
    <glyph glyph-name="ccedilla" unicode="&#xe7;" horiz-adv-x="864" 
d="M328 -6q-140 40 -221.5 179t-81.5 374q0 146 33.5 257.5t92.5 179t135 101t167 33.5q95 0 165.5 -28t115.5 -83.5t71 -126t39 -165.5l-309 -45q-9 103 -27.5 147.5t-56.5 44.5q-35 0 -54 -25.5t-29 -94.5t-10 -195q0 -185 19.5 -254.5t71.5 -69.5q43 0 66 48t32 161
l299 -41q-50 -403 -381 -414l-19 -63q33 29 99 29q59 0 96 -38t37 -116q0 -85 -66 -144t-190 -59q-148 0 -272 62l53 121q36 -19 94.5 -34.5t110.5 -15.5q69 0 69 50q0 43 -47 43q-33 0 -59 -29l-97 41z" />
    <glyph glyph-name="egrave" unicode="&#xe8;" horiz-adv-x="866" 
d="M455 -16q-198 0 -314 139.5t-116 423.5q0 146 32 256.5t89.5 177t131.5 99t164 32.5q205 0 302.5 -150t97.5 -425v-113h-498q3 -193 115 -193q49 0 81 36.5t54 103.5l252 -92q-49 -139 -148 -217t-243 -78zM346 637h189q0 127 -23 174t-70 47q-96 0 -96 -221zM319 1198
l-207 330h314l135 -330h-242z" />
    <glyph glyph-name="eacute" unicode="&#xe9;" horiz-adv-x="866" 
d="M455 -16q-198 0 -314 139.5t-116 423.5q0 146 32 256.5t89.5 177t131.5 99t164 32.5q205 0 302.5 -150t97.5 -425v-113h-498q3 -193 115 -193q49 0 81 36.5t54 103.5l252 -92q-49 -139 -148 -217t-243 -78zM346 637h189q0 127 -23 174t-70 47q-96 0 -96 -221zM266 1198
l135 330h313l-207 -330h-241z" />
    <glyph glyph-name="ecircumflex" unicode="&#xea;" horiz-adv-x="866" 
d="M455 -16q-198 0 -314 139.5t-116 423.5q0 146 32 256.5t89.5 177t131.5 99t164 32.5q205 0 302.5 -150t97.5 -425v-113h-498q3 -193 115 -193q49 0 81 36.5t54 103.5l252 -92q-49 -139 -148 -217t-243 -78zM346 637h189q0 127 -23 174t-70 47q-96 0 -96 -221zM135 1196
l185 332h227l182 -332h-194l-105 117l-102 -117h-193z" />
    <glyph glyph-name="edieresis" unicode="&#xeb;" horiz-adv-x="866" 
d="M455 -16q-198 0 -314 139.5t-116 423.5q0 146 32 256.5t89.5 177t131.5 99t164 32.5q205 0 302.5 -150t97.5 -425v-113h-498q3 -193 115 -193q49 0 81 36.5t54 103.5l252 -92q-49 -139 -148 -217t-243 -78zM346 637h189q0 127 -23 174t-70 47q-96 0 -96 -221zM485 1194
v307h273v-307h-273zM108 1194v307h273v-307h-273z" />
    <glyph glyph-name="igrave" unicode="&#xec;" horiz-adv-x="487" 
d="M76 0v1096h336v-1096h-336zM115 1198l-207 330h313l135 -330h-241z" />
    <glyph glyph-name="iacute" unicode="&#xed;" horiz-adv-x="487" 
d="M76 0v1096h336v-1096h-336zM123 1198l135 330h313l-207 -330h-241z" />
    <glyph glyph-name="icircumflex" unicode="&#xee;" horiz-adv-x="487" 
d="M76 0v1096h336v-1096h-336zM-53 1196l184 332h227l183 -332h-195l-104 117l-103 -117h-192z" />
    <glyph glyph-name="idieresis" unicode="&#xef;" horiz-adv-x="487" 
d="M76 0v1096h336v-1096h-336zM295 1194v307h272v-307h-272zM-82 1194v307h272v-307h-272z" />
    <glyph glyph-name="eth" unicode="&#xf0;" horiz-adv-x="907" 
d="M518 1165l-119 -67l-84 143l95 53q-45 45 -105 92l162 185q100 -75 168 -148l141 82l84 -141l-125 -72q150 -243 150 -669q0 -324 -106 -481.5t-318 -157.5q-209 0 -322.5 140t-113.5 392q0 254 103 399.5t278 145.5q71 0 128.5 -36.5t86.5 -92.5q-24 117 -103 233z
M455 258q54 0 78 56t24 206q0 107 -12 170t-33.5 87t-56.5 24t-56.5 -21.5t-34 -85t-12.5 -176.5q0 -107 12.5 -165t33 -76.5t57.5 -18.5z" />
    <glyph glyph-name="ntilde" unicode="&#xf1;" horiz-adv-x="944" 
d="M66 0v1096h335v-133q39 57 114 103t159 46q102 0 156.5 -54t54.5 -194v-864h-336v743q0 72 -47 72q-41 0 -101 -43v-772h-335zM602 1161q-43 0 -82.5 18t-63.5 39.5t-51.5 39.5t-48.5 18q-61 0 -61 -111h-160q0 367 211 367q43 0 82.5 -18t63.5 -39.5t51.5 -39.5
t48.5 -18q61 0 61 111h160q0 -367 -211 -367z" />
    <glyph glyph-name="ograve" unicode="&#xf2;" horiz-adv-x="909" 
d="M455 -14q-93 0 -169.5 33.5t-135.5 100.5t-92 177t-33 254q0 286 117.5 423.5t312.5 137.5q93 0 169 -32t135.5 -97.5t92.5 -175.5t33 -256q0 -144 -33 -254t-92.5 -177t-136 -100.5t-168.5 -33.5zM455 231q54 0 74 66t20 254q0 179 -19.5 242t-74.5 63q-37 0 -57 -23
t-30 -89.5t-10 -192.5q0 -179 21 -249.5t76 -70.5zM342 1198l-207 330h314l135 -330h-242z" />
    <glyph glyph-name="oacute" unicode="&#xf3;" horiz-adv-x="909" 
d="M455 -14q-93 0 -169.5 33.5t-135.5 100.5t-92 177t-33 254q0 286 117.5 423.5t312.5 137.5q93 0 169 -32t135.5 -97.5t92.5 -175.5t33 -256q0 -144 -33 -254t-92.5 -177t-136 -100.5t-168.5 -33.5zM455 231q54 0 74 66t20 254q0 179 -19.5 242t-74.5 63q-37 0 -57 -23
t-30 -89.5t-10 -192.5q0 -179 21 -249.5t76 -70.5zM289 1198l135 330h313l-207 -330h-241z" />
    <glyph glyph-name="ocircumflex" unicode="&#xf4;" horiz-adv-x="909" 
d="M455 -14q-93 0 -169.5 33.5t-135.5 100.5t-92 177t-33 254q0 286 117.5 423.5t312.5 137.5q93 0 169 -32t135.5 -97.5t92.5 -175.5t33 -256q0 -144 -33 -254t-92.5 -177t-136 -100.5t-168.5 -33.5zM455 231q54 0 74 66t20 254q0 179 -19.5 242t-74.5 63q-37 0 -57 -23
t-30 -89.5t-10 -192.5q0 -179 21 -249.5t76 -70.5zM157 1196l185 332h227l182 -332h-194l-105 117l-102 -117h-193z" />
    <glyph glyph-name="otilde" unicode="&#xf5;" horiz-adv-x="909" 
d="M455 -14q-93 0 -169.5 33.5t-135.5 100.5t-92 177t-33 254q0 286 117.5 423.5t312.5 137.5q93 0 169 -32t135.5 -97.5t92.5 -175.5t33 -256q0 -144 -33 -254t-92.5 -177t-136 -100.5t-168.5 -33.5zM455 231q54 0 74 66t20 254q0 179 -19.5 242t-74.5 63q-37 0 -57 -23
t-30 -89.5t-10 -192.5q0 -179 21 -249.5t76 -70.5zM586 1161q-43 0 -82.5 18t-63.5 39.5t-51.5 39.5t-48.5 18q-61 0 -61 -111h-160q0 367 211 367q43 0 82.5 -18t63.5 -39.5t51.5 -39.5t48.5 -18q61 0 61 111h160q0 -367 -211 -367z" />
    <glyph glyph-name="odieresis" unicode="&#xf6;" horiz-adv-x="909" 
d="M455 -14q-93 0 -169.5 33.5t-135.5 100.5t-92 177t-33 254q0 286 117.5 423.5t312.5 137.5q93 0 169 -32t135.5 -97.5t92.5 -175.5t33 -256q0 -144 -33 -254t-92.5 -177t-136 -100.5t-168.5 -33.5zM455 231q54 0 74 66t20 254q0 179 -19.5 242t-74.5 63q-37 0 -57 -23
t-30 -89.5t-10 -192.5q0 -179 21 -249.5t76 -70.5zM508 1194v307h273v-307h-273zM131 1194v307h273v-307h-273z" />
    <glyph glyph-name="divide" unicode="&#xf7;" horiz-adv-x="993" 
d="M358 924v288h277v-288h-277zM66 543v288h862v-288h-862zM358 160v289h277v-289h-277z" />
    <glyph glyph-name="oslash" unicode="&#xf8;" horiz-adv-x="909" 
d="M776 958q109 -144 109 -411q0 -144 -33 -254t-92.5 -176.5t-136 -99.5t-168.5 -33q-87 0 -158 26l-68 -139l-194 90l94 182q-104 142 -104 404q0 146 32.5 256.5t91.5 177t135.5 99t170.5 32.5q78 0 151 -25l78 150l190 -90zM344 528l152 301q-20 13 -41 13
q-57 0 -84 -63t-27 -232v-19zM563 575l-160 -313q21 -18 52 -18q56 0 82 65.5t26 237.5v28z" />
    <glyph glyph-name="ugrave" unicode="&#xf9;" horiz-adv-x="944" 
d="M270 -14q-103 0 -157 53.5t-54 193.5v863h334v-748q0 -72 49 -72q36 0 101 43v777h336v-1096h-336v135q-41 -57 -116 -103t-157 -46zM358 1198l-207 330h314l135 -330h-242z" />
    <glyph glyph-name="uacute" unicode="&#xfa;" horiz-adv-x="944" 
d="M270 -14q-103 0 -157 53.5t-54 193.5v863h334v-748q0 -72 49 -72q36 0 101 43v777h336v-1096h-336v135q-41 -57 -116 -103t-157 -46zM305 1198l135 330h313l-207 -330h-241z" />
    <glyph glyph-name="ucircumflex" unicode="&#xfb;" horiz-adv-x="944" 
d="M270 -14q-103 0 -157 53.5t-54 193.5v863h334v-748q0 -72 49 -72q36 0 101 43v777h336v-1096h-336v135q-41 -57 -116 -103t-157 -46zM174 1196l185 332h227l182 -332h-194l-105 117l-102 -117h-193z" />
    <glyph glyph-name="udieresis" unicode="&#xfc;" horiz-adv-x="944" 
d="M270 -14q-103 0 -157 53.5t-54 193.5v863h334v-748q0 -72 49 -72q36 0 101 43v777h336v-1096h-336v135q-41 -57 -116 -103t-157 -46zM524 1194v307h273v-307h-273zM147 1194v307h273v-307h-273z" />
    <glyph glyph-name="yacute" unicode="&#xfd;" horiz-adv-x="851" 
d="M205 -414q-141 0 -238 29l56 270q68 -14 116 -14q50 0 72 15.5t33 56.5l14 53l-272 1100h348l65 -459q15 -111 31 -289h8q18 185 35 287l74 461h319l-307 -1188q-43 -169 -121 -245.5t-233 -76.5zM258 1198l135 330h313l-207 -330h-241z" />
    <glyph glyph-name="thorn" unicode="&#xfe;" horiz-adv-x="940" 
d="M66 -410v1926h335v-549q85 145 228 145q284 0 284 -563q0 -561 -286 -561q-147 0 -226 135v-533h-335zM489 258q47 0 65.5 60.5t18.5 228.5q0 164 -17.5 219t-68.5 55q-38 0 -86 -43v-481q2 -1 8 -5.5l8 -6t7.5 -5.5t8 -5.5t8 -4.5t8.5 -4t8.5 -3t10 -3t10 -1.5
t11.5 -0.5z" />
    <glyph glyph-name="ydieresis" unicode="&#xff;" horiz-adv-x="851" 
d="M205 -414q-141 0 -238 29l56 270q68 -14 116 -14q50 0 72 15.5t33 56.5l14 53l-272 1100h348l65 -459q15 -111 31 -289h8q18 185 35 287l74 461h319l-307 -1188q-43 -169 -121 -245.5t-233 -76.5zM477 1194v307h273v-307h-273zM100 1194v307h273v-307h-273z" />
    <glyph glyph-name="dotlessi" unicode="&#x131;" horiz-adv-x="487" 
d="M76 0v1096h336v-1096h-336z" />
    <glyph glyph-name="Lslash" unicode="&#x141;" horiz-adv-x="851" 
d="M92 0v623l-86 -29v285l86 28v609h352v-486l127 39v-285l-127 -39v-456h404v-289h-756z" />
    <glyph glyph-name="lslash" unicode="&#x142;" horiz-adv-x="520" 
d="M94 0v596l-65 -21v263l65 20v658h336v-551l66 20v-264l-66 -19v-702h-336z" />
    <glyph glyph-name="OE" unicode="&#x152;" horiz-adv-x="1505" 
d="M784 1427v89h678v-299h-397v-285h283v-279h-283v-364h412v-289h-693v90q-89 -106 -237 -106q-116 0 -207.5 43t-161 133t-106.5 241t-37 357t37 357.5t106.5 242t161 133.5t207.5 43q147 0 237 -107zM547 285q86 0 119.5 110.5t33.5 362.5q0 250 -33.5 357.5
t-119.5 107.5q-87 0 -121.5 -107.5t-34.5 -357.5q0 -252 34.5 -362.5t121.5 -110.5z" />
    <glyph glyph-name="oe" unicode="&#x153;" horiz-adv-x="1380" 
d="M455 -16q-93 0 -169.5 33t-135.5 99.5t-92 176.5t-33 254q0 146 32.5 256.5t91.5 177t135.5 99t170.5 32.5q158 0 250 -96q99 96 251 96q205 0 302.5 -150t97.5 -425v-113h-498q3 -193 115 -193q49 0 81 36.5t54 103.5l252 -92q-49 -139 -148 -217t-243 -78
q-164 0 -262 98q-95 -98 -252 -98zM860 637h189q0 127 -23 174t-70 47q-96 0 -96 -221zM455 229q36 0 55.5 26.5t29 94.5t9.5 197q0 180 -19.5 244.5t-74.5 64.5q-37 0 -57 -24t-30 -91.5t-10 -193.5q0 -178 21 -248t76 -70z" />
    <glyph glyph-name="Scaron" unicode="&#x160;" horiz-adv-x="997" 
d="M506 -20q-96 0 -170.5 26t-124 68.5t-85 108t-55 134t-32.5 156.5l301 51q22 -130 59 -192t109 -62q52 0 76 31t24 74q0 47 -30 92.5t-77.5 85t-105.5 82t-116 92.5t-105.5 105.5t-77.5 131.5t-30 162q0 190 118.5 301t321.5 111q100 0 175.5 -31.5t126 -94.5t83 -141.5
t55.5 -187.5l-307 -73q-24 120 -56.5 173.5t-90.5 53.5q-39 0 -61.5 -24t-22.5 -66q0 -44 30 -87.5t77.5 -83.5t105.5 -82.5t116 -93.5t105.5 -108t77.5 -134.5t30 -164.5q0 -184 -122 -298.5t-322 -114.5zM394 1606l-185 332h195l102 -117l103 117h196l-184 -332h-227z" />
    <glyph glyph-name="scaron" unicode="&#x161;" horiz-adv-x="839" 
d="M426 -18q-295 0 -424 278l240 113q34 -74 81.5 -112t96.5 -38q33 0 56.5 15.5t23.5 48.5q0 27 -25.5 50.5t-66 42.5t-89.5 41t-97.5 53t-89 70.5t-66 102t-25.5 139.5q0 69 24 126.5t62 94.5t87.5 63t98.5 37t97 11q143 0 239 -60.5t158 -195.5l-244 -117
q-54 121 -145 121q-27 0 -44.5 -15.5t-17.5 -43.5q0 -29 25.5 -53.5t66 -44.5t89.5 -42t97.5 -53t89 -70t66 -100.5t25.5 -138.5q0 -151 -105 -237t-284 -86zM306 1196l-185 332h195l102 -117l103 117h196l-184 -332h-227z" />
    <glyph glyph-name="Ydieresis" unicode="&#x178;" horiz-adv-x="983" 
d="M313 0v526l-331 990h356l164 -605h8l164 605h327l-335 -990v-526h-353zM545 1604v307h273v-307h-273zM168 1604v307h273v-307h-273z" />
    <glyph glyph-name="Zcaron" unicode="&#x17d;" horiz-adv-x="923" 
d="M16 0v264l490 953h-451v299h836v-275l-488 -952h488v-289h-875zM347 1606l-185 332h195l102 -117l103 117h196l-184 -332h-227z" />
    <glyph glyph-name="zcaron" unicode="&#x17e;" horiz-adv-x="788" 
d="M23 0v201l348 645h-316v250h695v-211l-351 -645h373v-240h-749zM279 1196l-185 332h195l102 -117l103 117h196l-184 -332h-227z" />
    <glyph glyph-name="florin" unicode="&#x192;" horiz-adv-x="718" 
d="M-12 -412q-75 0 -117 6l35 259q30 -5 59 -5q51 0 75.5 23.5t31.5 81.5l92 680h-119l31 246h119l45 311q11 86 35 144.5t70.5 102t121.5 63.5t184 20q68 0 117 -7l-35 -262q-28 4 -69 4q-42 0 -66 -19t-31 -73l-39 -284h148l-31 -246h-147l-101 -731q-11 -82 -35.5 -138
t-70.5 -97t-120.5 -60t-182.5 -19z" />
    <glyph glyph-name="circumflex" unicode="&#x2c6;" horiz-adv-x="872" 
d="M139 1196l185 332h227l182 -332h-194l-105 117l-102 -117h-193z" />
    <glyph glyph-name="caron" unicode="&#x2c7;" horiz-adv-x="872" 
d="M322 1196l-185 332h195l102 -117l103 117h196l-184 -332h-227z" />
    <glyph glyph-name="breve" unicode="&#x2d8;" horiz-adv-x="825" 
d="M414 1186q-141 0 -207 88.5t-74 261.5h191q15 -154 90 -154q73 0 88 154h190q-8 -174 -72.5 -262t-205.5 -88z" />
    <glyph glyph-name="dotaccent" unicode="&#x2d9;" horiz-adv-x="825" 
d="M188 1206v295h338v-295h-338z" />
    <glyph glyph-name="ring" unicode="&#x2da;" horiz-adv-x="851" 
d="M426 1149q-95 0 -153 70t-58 172t58 171.5t153 69.5t153 -69.5t58 -171.5t-58 -172t-153 -70zM426 1282q51 0 51 102q0 103 -51 103t-51 -103q0 -102 51 -102z" />
    <glyph glyph-name="ogonek" unicode="&#x2db;" horiz-adv-x="825" 
d="M377 -401q-93 0 -141 46t-48 115q0 68 37 133t94 107h154q-36 -27 -61 -76.5t-25 -97.5q0 -36 17 -56t47 -20q28 0 52.5 9.5t37 19.5t30.5 28l84 -83q-57 -57 -122 -91t-156 -34z" />
    <glyph glyph-name="tilde" unicode="&#x2dc;" horiz-adv-x="845" 
d="M553 1161q-43 0 -82.5 18t-63.5 39.5t-51.5 39.5t-48.5 18q-61 0 -61 -111h-160q0 367 211 367q43 0 82.5 -18t63.5 -39.5t51.5 -39.5t48.5 -18q61 0 61 111h160q0 -367 -211 -367z" />
    <glyph glyph-name="hungarumlaut" unicode="&#x2dd;" horiz-adv-x="847" 
d="M387 1198l150 330h319l-225 -330h-244zM25 1198l141 330h319l-217 -330h-243z" />
    <glyph glyph-name="endash" unicode="&#x2013;" horiz-adv-x="962" 
d="M55 483v287h852v-287h-852z" />
    <glyph glyph-name="emdash" unicode="&#x2014;" horiz-adv-x="1247" 
d="M55 483v287h1137v-287h-1137z" />
    <glyph glyph-name="quoteleft" unicode="&#x2018;" horiz-adv-x="489" 
d="M63 860v336l166 320h160l-104 -302h141v-354h-363z" />
    <glyph glyph-name="quoteright" unicode="&#x2019;" horiz-adv-x="489" 
d="M100 860l105 301h-142v355h363v-336l-166 -320h-160z" />
    <glyph glyph-name="quotesinglbase" unicode="&#x201a;" horiz-adv-x="489" 
d="M100 -301l105 301h-142v354h363v-336l-166 -319h-160z" />
    <glyph glyph-name="quotedblleft" unicode="&#x201c;" horiz-adv-x="927" 
d="M508 860v336l164 320h155l-102 -302h139v-354h-356zM63 860v336l162 320h156l-102 -302h139v-354h-355z" />
    <glyph glyph-name="quotedblright" unicode="&#x201d;" horiz-adv-x="927" 
d="M547 860l102 301h-139v355h354v-336l-162 -320h-155zM100 860l103 301h-140v355h357v-336l-164 -320h-156z" />
    <glyph glyph-name="quotedblbase" unicode="&#x201e;" horiz-adv-x="927" 
d="M547 -301l102 301h-139v354h354v-336l-162 -319h-155zM100 -301l103 301h-140v354h357v-336l-164 -319h-156z" />
    <glyph glyph-name="dagger" unicode="&#x2020;" horiz-adv-x="948" 
d="M301 -410l47 1160l-307 -25v297l307 -27l-47 521h344l-45 -521l305 27v-297l-305 25l45 -1160h-344z" />
    <glyph glyph-name="daggerdbl" unicode="&#x2021;" horiz-adv-x="944" 
d="M301 -410l45 414l-287 -29v293l287 -26l-39 315l39 307l-287 -24v290l287 -26l-45 412h344l-45 -412l287 26v-290l-287 24l39 -307l-39 -315l287 26v-293l-287 29l45 -414h-344z" />
    <glyph glyph-name="bullet" unicode="&#x2022;" horiz-adv-x="948" 
d="M473 465q-109 0 -180.5 71.5t-71.5 180.5q0 110 71.5 182t180.5 72q110 0 182 -72t72 -182q0 -109 -72 -180.5t-182 -71.5z" />
    <glyph glyph-name="ellipsis" unicode="&#x2026;" horiz-adv-x="1486" 
d="M1051 0v354h376v-354h-376zM555 0v354h377v-354h-377zM59 0v354h377v-354h-377z" />
    <glyph glyph-name="perthousand" unicode="&#x2030;" horiz-adv-x="2453" 
d="M373 643q-90 0 -156.5 32.5t-106 93t-58.5 139t-19 177.5q0 209 84 329t256 120q174 0 257 -118t83 -326q0 -98 -19 -177.5t-58.5 -141t-106 -95t-156.5 -33.5zM403 0l631 1516h283l-631 -1516h-283zM2079 -16q-90 0 -156.5 33t-105.5 93.5t-57.5 139t-18.5 176.5
q0 210 84 330.5t256 120.5q173 0 256.5 -119t83.5 -326q0 -98 -19.5 -177.5t-59 -141t-106.5 -95.5t-157 -34zM1350 -16q-90 0 -156.5 33t-106 93.5t-58.5 139t-19 176.5q0 210 84 330.5t256 120.5q173 0 256.5 -119t83.5 -326q0 -98 -19 -177.5t-59 -141t-106.5 -95.5
t-155.5 -34zM373 856q36 0 47.5 49.5t11.5 181.5t-12.5 179t-48.5 47t-48 -45.5t-12 -175.5q0 -136 13 -186t49 -50zM2081 197q36 0 47.5 49.5t11.5 183.5q0 137 -12 180t-49 43q-36 0 -48 -45t-12 -174q0 -140 12.5 -188.5t49.5 -48.5zM1350 197q36 0 47.5 49.5t11.5 183.5
q0 137 -12 180t-49 43q-36 0 -48 -45t-12 -174q0 -140 12.5 -188.5t49.5 -48.5z" />
    <glyph glyph-name="guilsinglleft" unicode="&#x2039;" horiz-adv-x="569" 
d="M236 0l-216 543l216 540h307l-209 -540l209 -543h-307z" />
    <glyph glyph-name="guilsinglright" unicode="&#x203a;" horiz-adv-x="569" 
d="M27 0l209 543l-209 540h307l217 -540l-217 -543h-307z" />
    <glyph glyph-name="fraction" unicode="&#x2044;" horiz-adv-x="843" 
d="M-18 0l565 1516h315l-563 -1516h-317z" />
    <glyph glyph-name="Euro" unicode="&#x20ac;" 
d="M612 -16q-200 0 -312 115t-146 390h-127v226h112v43v30h-112v226h127q11 92 31 167t45.5 128.5t59.5 93.5t69.5 65t79 40t84.5 20.5t89 5.5q217 0 320 -122t115 -396l-302 -21q-12 156 -35.5 203t-88.5 47q-33 0 -53.5 -7.5t-40 -30.5t-30.5 -70t-16 -123h226v-226h-234
v-32v-41h234v-226h-226q6 -65 16.5 -109.5t21 -67.5t28.5 -35.5t31 -14.5t36 -2q51 0 75.5 16t40 69t22.5 165l307 -18q-4 -86 -16 -153t-42 -136.5t-77 -115t-126.5 -74.5t-185.5 -29z" />
    <glyph glyph-name="recordright" unicode="&#x2117;" horiz-adv-x="1204" 
d="M600 -29q-168 0 -297 102.5t-197.5 280.5t-68.5 400t70.5 401.5t200.5 284t296 104.5q168 0 297 -102.5t197.5 -280t68.5 -399.5t-70.5 -402t-200.5 -284.5t-296 -104.5zM604 115q186 0 295 177.5t109 461.5q0 186 -49 332.5t-142 230.5t-217 84t-216 -82t-139.5 -226
t-47.5 -331q0 -186 49 -332.5t142 -230.5t216 -84zM383 342v850h244q126 0 193 -68.5t67 -218.5q0 -157 -70 -225t-196 -68h-35v-270h-203zM586 797h39q35 0 52 19.5t17 80.5t-17 80.5t-52 19.5h-39v-200z" />
    <glyph glyph-name="trademark" unicode="&#x2122;" horiz-adv-x="1374" 
d="M598 649v867h289l74 -515l75 515h285v-867h-205v518l-78 -518h-170l-77 512v-512h-193zM178 649v647h-143v220h495v-220h-141v-647h-211z" />
    <glyph glyph-name="minus" unicode="&#x2212;" horiz-adv-x="993" 
d="M66 543v288h862v-288h-862z" />
    <glyph glyph-name="radical" unicode="&#x221a;" horiz-adv-x="942" 
d="M231 -4l-243 1100h338q98 -627 106 -711h4q4 37 55.5 319t101.5 546l50 263h311l-336 -1517h-387z" />
    <glyph glyph-name="registered.alt" unicode="&#xe000;" horiz-adv-x="882" 
d="M440 600q-151 0 -244.5 133t-93.5 336q0 204 95 339.5t245 135.5q152 0 245 -132.5t93 -336.5t-95 -339.5t-245 -135.5zM442 676q112 0 180 110t68 283q0 175 -69 287t-181 112q-111 0 -179 -110t-68 -283q0 -174 69 -286.5t180 -112.5zM297 827v510h147q75 0 116.5 -43
t41.5 -131q0 -105 -53 -151l55 -185h-123l-49 164h-14v-164h-121zM418 1096h20q25 0 36 14t11 49q0 33 -11 47.5t-36 14.5h-20v-125z" />
    <glyph glyph-name="fl" unicode="&#xfb02;" horiz-adv-x="1028" 
d="M131 0v846h-119v250h119v94q0 57 7 102.5t27.5 89.5t53.5 73t89 47t130 18q78 0 127 -7v-260q-14 2 -41 2q-59 0 -59 -92v-67h96v-250h-96v-846h-334zM612 0v1513h336v-1513h-336z" />
    </font>
</defs>
</svg>
